Tags
Language
Tags

Cat Sick Blues (2016)

Posted By: Tavaz
720p (HD) / BDRip IMDb
Cat Sick Blues (2016)

Cat Sick Blues (2016)
BDRip | MKV | 1280x720 | English / English / English | H264 @ 6456 kbps | AC-3 @ 640 kbps | 1 h 34 min | 4.78 GiB
Genre: Horror, Comedy

When Ted's beloved cat dies, the trauma triggers a mental breakdown. His broken brain prompts him to bring his feline friend back - all he needs is nine human lives.

Cat.Sick.Blues.2015.720p.BluRay.x264-HANDJOB.mkv (4.8 GB)



General
Unique ID : 331519692714494883628147331847705966918 (0xF9685ECE4B27624A4F5C74552FCDB946)
Complete name : ./Cat.Sick.Blues.2015.720p.BluRay.x264-HANDJOB.mkv
Format : Matroska
Format version : Version 4 / Version 2
File size : 4.78 GiB
Duration : 1 h 34 min
Overall bit rate : 7 257 kb/s
Movie name : Cat Sick Blues [2015] 720p BluRay - HJ
Encoded date : UTC 2019-06-28 02:30:19
Writing application : mkvmerge v35.0.0 ('All The Love In The World') 64-bit
Writing library : libebml v1.3.9 + libmatroska v1.5.2 / Lavf58.20.100

Video
ID : 1
Format : AVC
Format/Info : Advanced Video Codec
Format profile : High@L4.1
Format settings : CABAC / 9 Ref Frames
Format settings, CABAC : Yes
Format settings, RefFrames : 9 frames
Codec ID : V_MPEG4/ISO/AVC
Duration : 1 h 34 min
Bit rate : 6 456 kb/s
Width : 1 280 pixels
Height : 720 pixels
Display aspect ratio : 16:9
Frame rate mode : Constant
Frame rate : 24.000 FPS
Color space : YUV
Chroma subsampling : 4:2:0
Bit depth : 8 bits
Scan type : Progressive
Bits/(Pixel*Frame) : 0.292
Stream size : 4.26 GiB (89%)
Writing library : x264 core 157 r2935 545de2f
Encoding settings : cabac=1 / ref=9 / deblock=1:-3:-3 / analyse=0x3:0x133 / me=umh / subme=10 / psy=1 / psy_rd=1.00:0.00 / mixed_ref=1 / me_range=32 / chroma_me=1 / trellis=2 / 8x8dct=1 / cqm=0 / deadzone=21,11 / fast_pskip=0 / chroma_qp_offset=-2 / threads=18 / lookahead_threads=4 / sliced_threads=0 / nr=0 / decimate=0 / interlaced=0 / bluray_compat=0 / constrained_intra=0 / bframes=16 / b_pyramid=2 / b_adapt=2 / b_bias=0 / direct=3 / weightb=1 / open_gop=0 / weightp=2 / keyint=240 / keyint_min=24 / scenecut=40 / intra_refresh=0 / rc_lookahead=60 / rc=crf / mbtree=0 / crf=14.0 / qcomp=0.60 / qpmin=0 / qpmax=69 / qpstep=4 / vbv_maxrate=62500 / vbv_bufsize=78125 / crf_max=0.0 / nal_hrd=none / filler=0 / ip_ratio=1.40 / pb_ratio=1.30 / aq=2:1.00
Language : English
Default : Yes
Forced : No
Color range : Limited
Color primaries : BT.709
Transfer characteristics : BT.709
Matrix coefficients : BT.709

Audio #1
ID : 2
Format : AC-3
Format/Info : Audio Coding 3
Format settings, Endianness : Big
Codec ID : A_AC3
Duration : 1 h 34 min
Bit rate mode : Constant
Bit rate : 640 kb/s
Channel(s) : 6 channels
Channel positions : Front: L C R, Side: L R, LFE
Sampling rate : 48.0 kHz
Frame rate : 31.250 FPS (1536 SPF)
Bit depth : 16 bits
Compression mode : Lossy
Stream size : 432 MiB (9%)
Language : English
Service kind : Complete Main
Default : Yes
Forced : No

Audio #2
ID : 3
Format : AAC
Format/Info : Advanced Audio Codec
Format profile : LC
Codec ID : A_AAC-2
Duration : 1 h 34 min
Bit rate : 81.7 kb/s
Channel(s) : 2 channels
Channel positions : Front: L R
Sampling rate : 48.0 kHz
Frame rate : 46.875 FPS (1024 SPF)
Compression mode : Lossy
Stream size : 55.1 MiB (1%)
Title : Commentary with director Dave Jackson, producer Matthew C. Vaughan and producer Taena Hoshi
Language : English
Default : No
Forced : No

Audio #3
ID : 4
Format : AAC
Format/Info : Advanced Audio Codec
Format profile : LC
Codec ID : A_AAC-2
Duration : 1 h 34 min
Bit rate : 76.0 kb/s
Channel(s) : 2 channels
Channel positions : Front: L R
Sampling rate : 48.0 kHz
Frame rate : 46.875 FPS (1024 SPF)
Compression mode : Lossy
Stream size : 51.3 MiB (1%)
Title : Commentary with the crews
Language : English
Default : No
Forced : No

Menu
00:00:00.000 : :Chapter 1
00:08:48.458 : :Chapter 2
00:18:24.958 : :Chapter 3
00:27:44.917 : :Chapter 4
00:41:10.292 : :Chapter 5
00:51:30.458 : :Chapter 6
01:00:24.000 : :Chapter 7
01:11:05.000 : :Chapter 8
01:18:47.083 : :Chapter 9
01:31:21.625 : :Chapter 10





Cat Sick Blues (2016)


Cat Sick Blues (2016)


Cat Sick Blues (2016)


Cat Sick Blues (2016)


Cat Sick Blues (2016)