Tags
Language
Tags

Channel 4 - Born to be Free: Saving Russia's Whales (2017)

Posted By: notbanned
720p (HD) / HDTV IMDb
Channel 4 - Born to be Free: Saving Russia's Whales (2017)

Channel 4 - Born to be Free: Saving Russia's Whales (2017)
HDTV | 1280x720 | .MKV/AVC @ 3228 Kbps | 1 h 14 min | 1.74 GiB
Audio: English AAC 129 kbps, 2 channels | Subs: English
Genre: Documentary

A group of free-diving Russian journalists into the cruel global trade in wild sea mammals. With unprecedented access to the gangs involved in the capture and transportation of these creatures to supply the world's entertainment industry, the documentary reveals, for the first time, the shocking and heart-breaking conditions beluga whales that entertain audiences in our sea parks and aquariums are subjected to. This unprecedented investigation reveals the powerful forces behind this dark and secretive business. The programme also focuses on a legal battle surrounding 18 beluga whales destined for the American market, which has transformed attitudes towards the importation of wild sea mammals into the US forever.

General
Unique ID : 175068497413798953490094976550990283341 (0x83B4F755874C5C12BC4883800CCC824D)
Complete name : Ch4.Born.to.Be.Free.Saving.Russias.Whales.720p.mkv
Format : Matroska
Format version : Version 4 / Version 2
File size : 1.74 GiB
Duration : 1 h 14 min
Overall bit rate : 3 359 kb/s

Video
ID : 1
Format : AVC
Format/Info : Advanced Video Codec
Format profile : High@L3.1
Format settings, CABAC : Yes
Format settings, ReFrames : 4 frames
Codec ID : V_MPEG4/ISO/AVC
Duration : 1 h 14 min
Bit rate : 3 228 kb/s
Width : 1 280 pixels
Height : 720 pixels
Display aspect ratio : 16:9
Frame rate mode : Constant
Frame rate : 25.000 FPS
Color space : YUV
Chroma subsampling : 4:2:0
Bit depth : 8 bits
Scan type : Progressive
Bits/(Pixel*Frame) : 0.140
Stream size : 1.67 GiB (96%)
Writing library : x264 core 152 r2851 MVGroup
Encoding settings : cabac=1 / ref=3 / deblock=1:0:0 / analyse=0x3:0x113 / me=umh / subme=9 / psy=1 / psy_rd=1.00:0.00 / mixed_ref=1 / me_range=24 / chroma_me=1 / trellis=1 / 8x8dct=1 / cqm=0 / deadzone=21,11 / fast_pskip=0 / chroma_qp_offset=-2 / threads=3 / lookahead_threads=1 / sliced_threads=0 / nr=0 / decimate=1 / interlaced=0 / bluray_compat=0 / constrained_intra=0 / bframes=6 / b_pyramid=2 / b_adapt=2 / b_bias=0 / direct=1 / weightb=1 / open_gop=0 / weightp=2 / keyint=250 / keyint_min=25 / scenecut=40 / intra_refresh=0 / rc_lookahead=40 / rc=crf / mbtree=1 / crf=21.0 / qcomp=0.60 / qpmin=0 / qpmax=69 / qpstep=4 / ip_ratio=1.40 / aq=1:1.00
Language : English
Default : Yes
Forced : No
Color range : Limited
Color primaries : BT.709
Transfer characteristics : BT.709
Matrix coefficients : BT.709

Audio
ID : 2
Format : AAC
Format/Info : Advanced Audio Codec
Format profile : LC
Codec ID : A_AAC
Duration : 1 h 14 min
Bit rate : 129 kb/s
Channel(s) : 2 channels
Channel positions : Front: L R
Sampling rate : 48.0 kHz
Frame rate : 46.875 FPS (1024 spf)
Compression mode : Lossy
Delay relative to video : 9 ms
Stream size : 68.1 MiB (4%)
Language : English
Default : Yes
Forced : No

Text
ID : 3
Format : UTF-8
Codec ID : S_TEXT/UTF8
Codec ID/Info : UTF-8 Plain Text
Duration : 1 h 13 min
Bit rate : 32 b/s
Count of elements : 397
Stream size : 17.5 KiB (0%)
Language : English
Default : No
Forced : No


Screenshots:

Channel 4 - Born to be Free: Saving Russia's Whales (2017)

Channel 4 - Born to be Free: Saving Russia's Whales (2017)

Channel 4 - Born to be Free: Saving Russia's Whales (2017)

Channel 4 - Born to be Free: Saving Russia's Whales (2017)