Tags
Language
Tags

Channel 4 - The Dark Side of Porn (2005)

Posted By: Tutorial
SD / DVDRip IMDb
Channel 4 - The Dark Side of Porn (2005)

Channel 4 - The Dark Side of Porn (2005)
PDTV | 512 x 384 | .AVI/XviD@ 866 Kbps | 9x~48mn | 3.32 GB
Audio: English MP3 121 Kbps, 2 channels | Subs: None
Genre: Documentary

Channel 4 presents a series of documentaries exploring the dark reality of the adult film industry.

Part 1: Porn Shutdown
Darren James was diagnosed with HIV in early 2004, which led to a two month shutdown of the adult movie industry in Los Angeles. Featuring Sharon Mitchell, founder of the Adult Industry Medical Health Care Foundation and Rob Black, producer of Gonzo pornography.


Part 2: Diary of a Porn Virgin
This episode gives an insight in the lives of newcomers to the adult entertainment. From the initial approach to a glamour agency and the first sexy photo-shoot to the HIV test, the audition and the first hardcore shoot, it shows the gritty reality of what working in the porn industry means in Britain today.


Part 3: Debbie Does Dallas Uncovered
Also known as The Curse of Debbie Does Dallas, in the vein of Inside Deep Throat, it examines the history of the production and marketing of the 1978 cult hit, Debbie Does Dallas, and is a study of the porn industry in the 1970s. Interviews with former porn stars also try to uncover the mystery of Bambi Woods, the starlet who disappeared from porn soon after Debbie Does Dallas and was rumored to have connections with the mafia and problems with the FBI. Featuring interviews with Robin Byrd, female actress in the movie and Bill Kelly, a former FBI agent once working on an undercover operation to bust porn producers.


Part 4: Death of a Porn Star
This episode examines the mystery surrounding the death of Lolo Ferrari. Featuring candid interviews with Lola's mother, her plastic surgeon and her husband.


Part 5: Amateur Porn
This episode examines what is going on in the British sex industry, where new male actors are lining up to do a job without getting paid.


Part 6: Me and My Slaves
This episodes is centered around "Rick", a professional BDSM Master who wants to quit the job after doing it for 25 years. Over a period of more than a year, Rick talks intimately about his life.


Part 7: Hunting Emmanuelle
This episode examines the cultural impact of the movie Emmanuelle. Featuring an interview with Sylvia Kristel.


Part 8: Does Snuff Exist
This episode investigates the truth behind snuff movies. It features the 1997 German case where Ernst Dieter Korzen and Stefan Michael Mahn kidnapped a prostitute and recorded her torture. It includes an interview with British detective superintendent Michael Hames.


Part 9: The Real Animal Farm
Looks into the story behind bestiality porn movies, and discusses the notorious Animal Farm video. Several interviewees, including David Kerekes (co-author of Killing For Culture and See No Evil), author Phil Tonge, feminist writer Germaine Greer and British pornographer Ben Dover, all admitted to having seen bootlegs of Animal Farm in the 1980s, but were apparently unaware that there was no such film — the entity referred to as such was merely a number of existing bestiality shorts tacked together. The documentary also told the story of Bodil Joensen, a psychologically traumatized young woman whose brief notoriety as the "Queen of Bestiality" was followed by a downward spiral of alcohol abuse and prostitution before her death of cirrhosis of the liver at the age of forty, and featured an interview with the Danish pornographer Ole Ege.

General
Complete name : Ch4.The.Dark.Side.of.Porn.1of9.Porn.Shutdown.avi
Format : AVI
Format/Info : Audio Video Interleave
Format profile : OpenDML
Format settings : rec
File size : 348 MiB
Duration : 48 min 50 s
Overall bit rate mode : Variable
Overall bit rate : 996 kb/s
Writing application : AVI-Mux GUI 1.16.11, Dec 15 2004 14:51:34

Video
ID : 0
Format : MPEG-4 Visual
Format profile : Simple@L3
Format settings, BVOP : 1
Format settings, QPel : No
Format settings, GMC : No warppoints
Format settings, Matrix : Default (H.263)
Codec ID : XVID
Codec ID/Hint : XviD
Duration : 48 min 50 s
Bit rate : 866 kb/s
Width : 512 pixels
Height : 384 pixels
Display aspect ratio : 4:3
Frame rate : 25.000 FPS
Color space : YUV
Chroma subsampling : 4:2:0
Bit depth : 8 bits
Scan type : Progressive
Compression mode : Lossy
Bits/(Pixel*Frame) : 0.176
Stream size : 303 MiB (87%)
Writing library : XviD 1.1.0 Beta1 (UTC 2005-01-16)

Audio
ID : 1
Format : MPEG Audio
Format version : Version 1
Format profile : Layer 3
Mode : Joint stereo
Codec ID : 55
Codec ID/Hint : MP3
Duration : 48 min 50 s
Bit rate mode : Variable
Bit rate : 121 kb/s
Minimum bit rate : 56.0 kb/s
Channel(s) : 2 channels
Sampling rate : 48.0 kHz
Compression mode : Lossy
Stream size : 42.2 MiB (12%)
Alignment : Aligned on interleaves
Interleave, duration : 24 ms (0.60 video frame)
Interleave, preload duration : 120 ms
Title : porn shutdown
Writing library : LAME3.96r
Encoding settings : -m j -V 0 -q 3 -lowpass 19.5 –vbr-old -b 56
Screenshots

Channel 4 - The Dark Side of Porn (2005)

Channel 4 - The Dark Side of Porn (2005)

Channel 4 - The Dark Side of Porn (2005)

Welcome to my blog - daily update!

Channel 4 - The Dark Side of Porn (2005)