Channel 4 - The Year Britain Flooded (2013)

Posted By: Polik88
Channel 4 - The Year Britain Flooded (2013)

Channel 4 - The Year Britain Flooded (2013)
English | MP4 | 832x468 | AVC 2034 Kbps 25.000 fps | AAC 128 Kbps 48.0 khz | 46mn 20s | 718 MB
Genre: Documentary

In 2012 roads became rivers, rivers swelled to raging torrents and green fields turned into vast, spreading lakes. It was the year Britain flooded. The relentless and unprecedented levels of rainfall had little respite; it was England's wettest year since records began. Yet 2012 had started so well. After months so dry that garden hosepipes were banned, the drought broke and the rain started to fall, making April the wettest month ever known in Britain. The weather got worse: more than twice the average rainfall in June created the wettest summer in a century, and 2012 became officially the second wettest year ever recorded in the UK. This documentary reveals how a combination of meteorological and geological factors created the year of the flood. Taking to the air with weather experts and diving into Britain's sewage system and saturated underground aquifers, the programme explains why the floods occurred and shows how devastating they can be. It's not just the overflowing content of your local river that can be hazardous to health, but also the pollutants pouring upwards from drains and sewers. With dramatic eye-witness accounts of the worst of the country's floods, moving human stories and expert interviews with meteorologists, geologists and climate scientists, this film reveals exactly what happened in the year Britain flooded.
General
Complete name : Ch4.The.Year.Britain.Flooded.mp4
Format : MPEG-4
Format profile : Base Media
Codec ID : isom
File size : 718 MiB
Duration : 46mn 20s
Overall bit rate mode : Variable
Overall bit rate : 2 166 Kbps
Encoded date : UTC 2013-02-13 09:28:58
Tagged date : UTC 2013-02-13 09:28:58
Writing application : Lavf51.12.1

Video
ID : 1
Format : AVC
Format/Info : Advanced Video Codec
Format profile : High@L3.0
Format settings, CABAC : No
Format settings, ReFrames : 1 frame
Format settings, GOP : M=1, N=12
Codec ID : avc1
Codec ID/Info : Advanced Video Coding
Duration : 46mn 20s
Bit rate : 2 034 Kbps
Width : 832 pixels
Height : 468 pixels
Display aspect ratio : 16:9
Frame rate mode : Constant
Frame rate : 25.000 fps
Color space : YUV
Chroma subsampling : 4:2:0
Bit depth : 8 bits
Scan type : Progressive
Bits/(Pixel*Frame) : 0.209
Stream size : 674 MiB (94%)
Encoded date : UTC 2013-02-13 09:28:58
Tagged date : UTC 2013-02-13 09:28:58

Audio
ID : 2
Format : AAC
Format/Info : Advanced Audio Codec
Format profile : LC
Codec ID : 40
Duration : 46mn 20s
Bit rate mode : Variable
Bit rate : 128 Kbps
Channel(s) : 2 channels
Channel positions : Front: L R
Sampling rate : 48.0 KHz
Compression mode : Lossy
Stream size : 42.4 MiB (6%)
Encoded date : UTC 2013-02-13 09:28:58
Tagged date : UTC 2013-02-13 09:28:58

Screenshots

Channel 4 - The Year Britain Flooded (2013)

Channel 4 - The Year Britain Flooded (2013)

Channel 4 - The Year Britain Flooded (2013)

no mirrors please, Follow The Rules
Visit Polik88 Blog Here
no password