Channel 5 - Brain Hospital: Saving Lives (2013)

Posted By: Polik88
Channel 5 - Brain Hospital: Saving Lives (2013)

Channel 5 - Brain Hospital: Saving Lives (2013)
PDTV | English | AVI/XVID 25.000 fps 1032 Kbps | 640x360 | MP3 128 Kbps 48.0 khz | 3x45mn | 823 MB
Genre: Documentary

Neurosurgeons at Liverpool's Walton Centre treat two men facing crises, but who maintain a positive outlook. Former university dean Martin is being treated for malignant tumours after learning that cancer has spread to his brain. Meanwhile, Marc has a chronic tremor that has been worsening since he was a teenager and is set to undergo deep-brain stimulation to control it.
General
Complete name : Brain.Hospital.Saving.Lives\Brain.Hospital.Saving.Lives.1x01.avi
Format : AVI
Format/Info : Audio Video Interleave
File size : 379 MiB
Duration : 45mn 9s
Overall bit rate mode : Variable
Overall bit rate : 1 173 Kbps

Video
ID : 0
Format : MPEG-4 Visual
Format profile : Advanced Simple@L5
Format settings, BVOP : 2
Format settings, QPel : No
Format settings, GMC : No warppoints
Format settings, Matrix : Default (H.263)
Codec ID : XVID
Codec ID/Hint : XviD
Duration : 45mn 9s
Bit rate : 1 032 Kbps
Width : 640 pixels
Height : 360 pixels
Display aspect ratio : 16:9
Frame rate : 25.000 fps
Color space : YUV
Chroma subsampling : 4:2:0
Bit depth : 8 bits
Scan type : Progressive
Compression mode : Lossy
Bits/(Pixel*Frame) : 0.179
Stream size : 333 MiB (88%)
Writing library : XviD 64

Audio
ID : 1
Format : MPEG Audio
Format version : Version 1
Format profile : Layer 3
Mode : Joint stereo
Mode extension : MS Stereo
Codec ID : 55
Codec ID/Hint : MP3
Duration : 45mn 9s
Bit rate mode : Variable
Bit rate : 128 Kbps
Channel(s) : 2 channels
Sampling rate : 48.0 KHz
Compression mode : Lossy
Stream size : 41.3 MiB (11%)
Alignment : Aligned on interleaves
Interleave, duration : 24 ms (0.60 video frame)
Interleave, preload duration : 178 ms

Screenshots

Channel 5 - Brain Hospital: Saving Lives (2013)

Channel 5 - Brain Hospital: Saving Lives (2013)

Channel 5 - Brain Hospital: Saving Lives (2013)

no mirrors please, Follow The Rules
Visit Polik88 Blog Here
no password