Channel 5 - Charley Boorman's South African Adventure (2013)

Posted By: Polik88
Channel 5 - Charley Boorman's South African Adventure (2013)

Channel 5 - Charley Boorman's South African Adventure (2013)
English | MP4 | 832x468 | AVC 1999 Kbps 25.000 fps | AAC 128 Kbps 48.0 khz | 4x44mn | 4x644 MB
Genre: Documentary

Join Adventurer Charley Boorman as he sets off once more on an epic motorbike adventure, this time making his way through the stunning, rugged and often unknown South Africa. Teaming up once again with producer/director Russ Malkin, they journey in a circular route starting and finishing in Cape Town, taking on all corners of this wild and varied African country, experiencing the deeply rooted cultures, the extraordinary people, the remarkable wildlife and the heart stopping adventures along the way. An abseil from the peak of Cape Town s iconic Table Mountain plunges Charley straight in to the start of his adventure. Following this he embarks on a journey of extremes that includes cage diving with deadly Great White Sharks in the rough Atlantic seas; navigating the majestic yet incredibly precarious Sani Pass to reach the icy peak; detonating dynamite deep underground in a Barberton Gold Mine; tracking lions on foot in the Kgalagadi Transfrontier Park; and searching the ocean floor for the perfect diamond in the ship wreck strewn West Coast. The incredible trip culminates in a huge motorbike convoy down to Signal Hill in Cape Town accompanied by over 250 local riders.

Part 1:
The first episode opens in spectacular style, with Charley ready to take on Table Mountain. At 3500ft, this is one of the country’s most instantly recognisable landmarks. With the vast Atlantic Ocean as the backdrop, he abseils from the summit then crosses the shark-infested waters to historic Robben Island, where Nelson Mandela was incarcerated for 18 years. At Gansbaai, he braves a ‘Jaws’ moment, cage-diving while Great White sharks are fed bait, then makes his way up the coast to the Born Free Foundation, where he is introduced to some of the rescued lions and leopards. Finally, he goes back into the water for a hair-raising sardine run with a twist. “I’ve had the most amazing time traveling through South Africa over the past six weeks,” says Charley. “I fell in love with South Africa the very first time I came here and I feel so lucky to have been able to really explore it further and get to spend lots of time with the fantastic people.”

Part 2:
This week, Charley’s trip starts just south of Durban where he is trying his hand at a spot of surfing amongst some of the country’s largest and fastest waves. Then he faces one of South Africa’s most challenging adventures – successfully navigating the Sani Pass. Leading up through the mountains towards Lesotho, Charley and team take a car up the treacherously steep and extremely icy path to the summit. This is a nerve-racking drive, during which one false move could see them plunge over a sheer mountain drop. Continuing their adventure towards the clouds, the team embark on a challenging trek to the top of Tugela Falls, enduring icy cold winds before setting up camp on the summit.

Part 3:
Charley samples South African life from three differing perspectives – in the air, deep below ground and in the bush. He starts by taking to the skies as he learns how to parajet. Although delivering some of the most spectacular views of South Africa, this is an activity that requires great skill to master, as Charley finds out. He then heads underground in order to get to grips with one of South Africa’s oldest working gold mines, and tries his hand blasting for the precious metal himself. Charley rounds off the episode by visiting South Africa’s flagship Kruger National Park. Extending over 7,300 square miles, this is the country's largest game reserve. Charley is hoping to encounter rhinos, hippos, elephants, crocodiles and giraffes. On a ‘wilderness experience on wheels’, he spends three days traversing the Lebombo Eco-Trail, enjoying the sounds and scents of the bush, getting up close to Africa's greatest wild animals and enjoying traditional bushveld dinners around the campfire.

Part 4:
This week, Charley meets a research team who study scorpions and risks life and limb learning how to handle one of the world’s most venomous creatures. Heading into the centre of the country, Charley gets behind the wheel of some of the giant trucks and machines used in the open iron ore mines. Moving west, the team spends two nights learning the way of the nomad with the San tribe in the desolate Kgalagadi National Park, before reaching the western coast. Venturing into the ocean once more, Charley goes diving in the open waters for diamonds, before ending the episode, and the series, in true Boorman style – leading a convoy of over 300 bikers from the Meer lust Winery through the beautiful mountains and beaches of Cape Town, to Signal Hill, renowned for its spectacular views.
General
Complete name : Ch5.Charley.Boormans.South.African.Adventure.1of4.mp4
Format : MPEG-4
Format profile : Base Media
Codec ID : isom
File size : 644 MiB
Duration : 42mn 18s
Overall bit rate : 2 130 Kbps
Encoded date : UTC 2013-02-05 15:45:46
Tagged date : UTC 2013-02-05 15:45:46
Writing application : Lavf51.12.1

Video
ID : 1
Format : AVC
Format/Info : Advanced Video Codec
Format profile : High@L3.0
Format settings, CABAC : No
Format settings, ReFrames : 1 frame
Format settings, GOP : M=1, N=12
Codec ID : avc1
Codec ID/Info : Advanced Video Coding
Duration : 42mn 17s
Bit rate : 1 999 Kbps
Width : 832 pixels
Height : 468 pixels
Display aspect ratio : 16:9
Frame rate mode : Constant
Frame rate : 25.000 fps
Color space : YUV
Chroma subsampling : 4:2:0
Bit depth : 8 bits
Scan type : Progressive
Bits/(Pixel*Frame) : 0.205
Stream size : 605 MiB (94%)
Encoded date : UTC 2013-02-05 15:45:46
Tagged date : UTC 2013-02-05 15:45:46

Audio
ID : 2
Format : AC-3
Format/Info : Audio Coding 3
Mode extension : CM (complete main)
Format settings, Endianness : Big
Codec ID : ac-3
Duration : 42mn 18s
Bit rate mode : Constant
Bit rate : 128 Kbps
Channel(s) : 2 channels
Channel positions : Front: L R
Sampling rate : 48.0 KHz
Bit depth : 16 bits
Compression mode : Lossy
Stream size : 38.7 MiB (6%)
Encoded date : UTC 2013-02-05 15:45:46
Tagged date : UTC 2013-02-05 15:45:46

Screenshots

Channel 5 - Charley Boorman's South African Adventure (2013)

Channel 5 - Charley Boorman's South African Adventure (2013)

Channel 5 - Charley Boorman's South African Adventure (2013)

Channel 5 - Charley Boorman's South African Adventure (2013)

Channel 5 - Charley Boorman's South African Adventure (2013)

no mirrors please, Follow The Rules
Visit Polik88 Blog Here
no password