Tags
Language
Tags

Child in the Night (1990)

Posted By: Tavaz
720p (HD) / BDRip IMDb
Child in the Night (1990)

Child in the Night (1990)
BDRip | MKV | 960x720 | English | H264 @ 8724 kbps | E-AC-3 @ 640 kbps | 1 h 35 min | 6.24 GiB
Subtitles: English
Genre: Mystery, Thriller, Drama, TV Movie

A child psychologist, Hollis who's marriage collapsed after she learned she was barren, bonds with Luke Winfield, who witnessed his father's murder at the hands of rain-slicker wearing killer with a cargo hook. Along the way she befriends Detective Bass as he investigates a series of homicides, each with the same M.O. As Hollis gets closer to Luke she discovers some trouble family secrets ensuring she is next to be slain.

555775834a3204254605901ee1c23070.mkv (6.2 GB)



General
Unique ID : 273195413169917559712691932941893914272 (0xCD8785CEF799E4234BF25711047A4EA0)
Complete name : ./555775834a3204254605901ee1c23070.mkv
Format : Matroska
Format version : Version 4 / Version 2
File size : 6.24 GiB
Duration : 1 h 35 min
Overall bit rate : 9 366 kb/s
Encoded date : UTC 2021-07-18 12:22:33
Writing application : mkvmerge v59.0.0 ('Shining Star') 64-bit
Writing library : libebml v1.4.2 + libmatroska v1.6.4

Video
ID : 1
Format : AVC
Format/Info : Advanced Video Codec
Format profile : High@L4.1
Format settings : CABAC / 12 Ref Frames
Format settings, CABAC : Yes
Format settings, RefFrames : 12 frames
Codec ID : V_MPEG4/ISO/AVC
Duration : 1 h 35 min
Bit rate : 8 724 kb/s
Width : 960 pixels
Height : 720 pixels
Display aspect ratio : 4:3
Frame rate mode : Constant
Frame rate : 23.976 (24000/1001) FPS
Color space : YUV
Chroma subsampling : 4:2:0
Bit depth : 8 bits
Scan type : Progressive
Bits/(Pixel*Frame) : 0.526
Stream size : 5.81 GiB (93%)
Writing library : x264 core 164 r3065+55M ~ Encoded by UHD in Ukraine
Encoding settings : cabac=1 / ref=12 / deblock=1:-3:-3 / analyse=0x3:0x113 / me=umh / subme=10 / psy=1 / fade_compensate=0.00 / psy_rd=1.00:0.00 / mixed_ref=1 / me_range=32 / chroma_me=1 / trellis=2 / 8x8dct=1 / cqm=0 / deadzone=21,11 / fast_pskip=0 / chroma_qp_offset=-2 / threads=6 / lookahead_threads=1 / sliced_threads=0 / nr=0 / decimate=0 / interlaced=0 / bluray_compat=0 / constrained_intra=0 / fgo=0 / bframes=12 / b_pyramid=2 / b_adapt=2 / b_bias=0 / direct=1 / weightb=1 / open_gop=0 / weightp=2 / keyint=250 / keyint_min=23 / scenecut=40 / intra_refresh=0 / rc_lookahead=60 / rc=crf / mbtree=0 / crf=17.7000 / qcomp=0.60 / qpmin=0:0:0 / qpmax=69:69:69 / qpstep=4 / vbv_maxrate=62500 / vbv_bufsize=78125 / crf_max=0.0 / nal_hrd=none / filler=0 / ip_ratio=1.30 / pb_ratio=1.20 / aq=3:0.75 / aq-sensitivity=10.00 / aq-factor=1.00:1.00:1.00 / aq2=0 / aq3=0
Language : English
Default : Yes
Forced : No
Color range : Limited
Color primaries : BT.709
Transfer characteristics : BT.709
Matrix coefficients : BT.709

Audio
ID : 2
Format : E-AC-3
Format/Info : Enhanced Audio Coding 3
Format settings, Endianness : Big
Codec ID : A_EAC3
Duration : 1 h 35 min
Bit rate mode : Constant
Bit rate : 640 kb/s
Channel(s) : 2 channels
Channel positions : Front: L R
Sampling rate : 48.0 kHz
Frame rate : 187.500 FPS (256 SPF)
Compression mode : Lossy
Stream size : 437 MiB (7%)
Language : English
Service kind : Complete Main
Default : Yes
Forced : No

Text
ID : 3
Format : UTF-8
Codec ID : S_TEXT/UTF8
Codec ID/Info : UTF-8 Plain Text
Duration : 1 h 35 min
Bit rate : 75 b/s
Count of elements : 1896
Stream size : 52.5 KiB (0%)
Title : SDH
Language : English
Default : No
Forced : No

Menu
00:00:00.000 : :Chapter 1
00:16:23.983 : :Chapter 2
00:43:19.096 : :Chapter 3
00:57:30.947 : :Chapter 4
01:19:42.778 : :Chapter 5





Child in the Night (1990)


Child in the Night (1990)


Child in the Night (1990)


Child in the Night (1990)


Child in the Night (1990)