Chinese Zodiac (2012)

Posted By: NaVi7
Chinese Zodiac (2012)

Chinese Zodiac (2012)
WEBRip | AVI / XVID, 701 Kbps | 720x304 | 1h 55mn | 692 MB
The Audio is Mandarin but many speaks in English: MP3, 128 Kbps (2 ch)
Subtitles: English and Chinese hardcoded
Genre: Action | Adventure

Asian Hawk (Jackie Chan) leads a mercenary team to recover several lost artifacts from the Old Summer Palace, the bronze heads of the 12 Chinese Zodiac animals which was looted by foreigners in the 1800s. Assisted by a Chinese student and a Parisian lady, Hawk stops at nothing to accomplish the mission.

imdb

General
Complete name : Chinese.Zodiac.2012.WEBRiP.XViD.avi
Format : AVI
Format/Info : Audio Video Interleave
File size : 692 MiB
Duration : 1h 55mn
Overall bit rate : 835 Kbps

Video
ID : 0
Format : MPEG-4 Visual
Format profile : Advanced Simple@L5
Format settings, BVOP : 2
Format settings, QPel : Yes
Format settings, GMC : No warppoints
Format settings, Matrix : Default (H.263)
Codec ID : XVID
Codec ID/Hint : XviD
Duration : 1h 55mn
Bit rate : 701 Kbps
Width : 720 pixels
Height : 304 pixels
Display aspect ratio : 2.35:1
Frame rate : 25.000 fps
Color space : YUV
Chroma subsampling : 4:2:0
Bit depth : 8 bits
Scan type : Progressive
Compression mode : Lossy
Bits/(Pixel*Frame) : 0.128
Stream size : 581 MiB (84%)
Writing library : XviD 1.2.1 (UTC 2008-12-04)

Audio
ID : 1
Format : MPEG Audio
Format version : Version 1
Format profile : Layer 3
Mode : Joint stereo
Mode extension : MS Stereo
Codec ID : 55
Codec ID/Hint : MP3
Duration : 1h 55mn
Bit rate mode : Constant
Bit rate : 128 Kbps
Channel(s) : 2 channels
Sampling rate : 48.0 KHz
Compression mode : Lossy
Stream size : 106 MiB (15%)
Alignment : Aligned on interleaves
Interleave, duration : 160 ms (4.00 video frames)
Interleave, preload duration : 216 ms
Title : Chinese Zodiac 2012 WEBRip - RiSES
Writing library : LAME3.99r
Encoding settings : -m j -V 4 -q 2 -lowpass 17 -b 128


screenshots:

Chinese Zodiac (2012)

Chinese Zodiac (2012)

Chinese Zodiac (2012)


Welcome to My Blog!

Subscribe to My Newsletter!

No more mirrors!

If you want to download it, but found out that links are dead, just leave a comment or PM me!
Download Links:
Uploaded | Rapidgator
Links to RapidGator and Uploaded are inside the html file. Download the file and open it in your browser.