Tags
Language
Tags

Chroniques sexuelles d'une famille d'aujourd'hui / Sexual Chronicles of a French Family (2012)

Posted By: RSU75
SD / DVDRip IMDb
Chroniques sexuelles d'une famille d'aujourd'hui / Sexual Chronicles of a French Family (2012)

Chroniques sexuelles d'une famille d'aujourd'hui / Sexual Chronicles of a French Family (2012)
DVDRip | MKV | AVC 712x468, ~ 1.6 Mbps | 1hr 19mn | 1.11 GB
French: AC3, 6 ch, 448 kbps
Subtitles: English, Spanish
Genre: Comedy | Drama



Director: Pascal Arnold (co-director), Jean-Marc Barr (co-director)
Writers: Lucy Allwood (translation and adaptation), Pascal Arnold
Stars: Mathias Melloul, Valérie Maës, Stephan Hersoen

The school catches 18-year-old Romain video taping himself masturbating in class and suspends him. Though the school drops the matter after learning it's only one incident in a game in which all students participate, Romain remains distressed. He's still a virgin and the only member of his family not engaged in sexual activity.



General
Unique ID : 200682137480907660104760415046679961862 (0x96F9F94A28741CCB8130642F6358A106)
Complete name : F:\ChroniquesSex.12.Dr\ChroniquesSex.12.Dr.mkv
Format : Matroska
Format version : Version 4 / Version 2
File size : 1.11 GiB
Duration : 1 h 19 min
Overall bit rate : 1 999 kb/s
Movie name : Release RSU75
Encoded date : UTC 2018-12-20 02:49:22
Writing application : mkvmerge v6.6.0 ('The Edge Of The In Between') built on Dec 1 2013 17:55:00
Writing library : libebml v1.3.0 + libmatroska v1.4.1

Video
ID : 1
Format : AVC
Format/Info : Advanced Video Codec
Format profile : High@L4.1
Format settings : CABAC / 4 Ref Frames
Format settings, CABAC : Yes
Format settings, ReFrames : 4 frames
Codec ID : V_MPEG4/ISO/AVC
Duration : 1 h 19 min
Bit rate : 1 511 kb/s
Nominal bit rate : 1 600 kb/s
Width : 720 pixels
Height : 468 pixels
Display aspect ratio : 1.85:1
Frame rate mode : Constant
Frame rate : 25.000 FPS
Color space : YUV
Chroma subsampling : 4:2:0
Bit depth : 8 bits
Scan type : Progressive
Bits/(Pixel*Frame) : 0.179
Stream size : 859 MiB (76%)
Writing library : x264 core 148 r2643 5c65704
Encoding settings : cabac=1 / ref=4 / deblock=1:0:0 / analyse=0x3:0x113 / me=umh / subme=8 / psy=1 / psy_rd=1.00:0.00 / mixed_ref=1 / me_range=24 / chroma_me=1 / trellis=1 / 8x8dct=1 / cqm=0 / deadzone=21,11 / fast_pskip=1 / chroma_qp_offset=-2 / threads=3 / lookahead_threads=1 / sliced_threads=0 / nr=0 / decimate=1 / interlaced=0 / bluray_compat=0 / constrained_intra=0 / bframes=3 / b_pyramid=0 / b_adapt=2 / b_bias=0 / direct=3 / weightb=1 / open_gop=0 / weightp=2 / keyint=250 / keyint_min=25 / scenecut=40 / intra_refresh=0 / rc_lookahead=40 / rc=abr / mbtree=1 / bitrate=1600 / ratetol=1.0 / qcomp=0.60 / qpmin=10 / qpmax=51 / qpstep=4 / ip_ratio=1.41 / aq=1:1.00
Language : English
Default : Yes
Forced : No

Audio
ID : 2
Format : AC-3
Format/Info : Audio Coding 3
Commercial name : Dolby Digital
Codec ID : A_AC3
Duration : 1 h 19 min
Bit rate mode : Constant
Bit rate : 448 kb/s
Channel(s) : 6 channels
Channel layout : L R C LFE Ls Rs
Sampling rate : 48.0 kHz
Frame rate : 31.250 FPS (1536 SPF)
Bit depth : 16 bits
Compression mode : Lossy
Stream size : 255 MiB (22%)
Language : French
Service kind : Complete Main
Default : Yes
Forced : No

Text #1
ID : 3
Format : VobSub
Muxing mode : zlib
Codec ID : S_VOBSUB
Codec ID/Info : Picture based subtitle format used on DVDs
Language : English
Default : Yes
Forced : No

Text #2
ID : 4
Format : VobSub
Muxing mode : zlib
Codec ID : S_VOBSUB
Codec ID/Info : Picture based subtitle format used on DVDs
Language : English
Default : No
Forced : No

Text #3
ID : 5
Format : VobSub
Muxing mode : zlib
Codec ID : S_VOBSUB
Codec ID/Info : Picture based subtitle format used on DVDs
Language : Spanish
Default : No
Forced : No

Menu
00:00:00.000 : en:Chapter 01
00:06:42.101 : en:Chapter 02
00:14:33.339 : en:Chapter 03
00:19:33.005 : en:Chapter 04
00:26:20.512 : en:Chapter 05
00:34:27.165 : en:Chapter 06
00:41:37.628 : en:Chapter 07
00:48:48.258 : en:Chapter 08
00:54:14.050 : en:Chapter 09
01:00:45.074 : en:Chapter 10
01:07:03.619 : en:Chapter 11
01:16:06.528 : en:Chapter 12




Screenshots (click to enlarge to original size):

Chroniques sexuelles d'une famille d'aujourd'hui / Sexual Chronicles of a French Family (2012)

Chroniques sexuelles d'une famille d'aujourd'hui / Sexual Chronicles of a French Family (2012)

Chroniques sexuelles d'une famille d'aujourd'hui / Sexual Chronicles of a French Family (2012)


Chroniques sexuelles d'une famille d'aujourd'hui / Sexual Chronicles of a French Family (2012)




–––––––––––––––––––––––––––––––––––––––-
OR OR
–––––––––––––––––––––––––––––––––––––––-

–––––––––––––––––––––––––––––––––––––––-