BBC - Cinema Through the Eye of Magnum (2017)

Posted By: notbanned
720p (HD) / WEB-DL
BBC - Cinema Through the Eye of Magnum (2017)

BBC - Cinema Through the Eye of Magnum (2017)
WEB-DL | 1280x720 | .MP4/AVC @ 2300 Kbps | 53 min 24 s | 1001 MiB
Audio: English AAC 317 kbps, 2 channels | Subs: English
Genre: Documentary

From the day it was created in 1947, Magnum Photos has represented some of the most famous names in photography whose pictures have come to define their times. But Magnum's work also includes more surprising images - pictures of cinema. This film recounts this remarkable collaboration - from Robert Capa's photos of Ingrid Bergman and Eve Arnold's intimate relationship with Marilyn Monroe, up until today with Paolo Pellegrin's portraits of Kate Winslet, providing an essential history of both cinema and photography.

General
Complete name : Cinema.Through.the.Eye.of.Magnum.2017.720p.mp4
Format : MPEG-4
Format profile : Base Media / Version 2
Codec ID : mp42 (mp42/isom)
File size : 1 001 MiB
Duration : 53 min 24 s
Overall bit rate mode : Variable
Overall bit rate : 2 622 kb/s

Video
ID : 2
Format : AVC
Format/Info : Advanced Video Codec
Format profile : High@L4.1
Format settings, CABAC : Yes
Format settings, ReFrames : 2 frames
Codec ID : avc1
Codec ID/Info : Advanced Video Coding
Duration : 53 min 24 s
Bit rate mode : Variable
Bit rate : 2 300 kb/s
Maximum bit rate : 3 500 kb/s
Width : 1 280 pixels
Height : 720 pixels
Display aspect ratio : 16:9
Frame rate mode : Constant
Frame rate : 25.000 FPS
Color space : YUV
Chroma subsampling : 4:2:0
Bit depth : 8 bits
Scan type : Progressive
Bits/(Pixel*Frame) : 0.100
Stream size : 879 MiB (88%)
Encoded date : UTC 2018-05-13 06:05:47
Tagged date : UTC 2018-05-13 06:07:05

Audio
ID : 1
Format : AAC
Format/Info : Advanced Audio Codec
Format profile : LC
Codec ID : 40
Duration : 53 min 24 s
Source duration : 53 min 24 s
Bit rate mode : Constant
Bit rate : 317 kb/s
Channel(s) : 2 channels
Channel positions : Front: L R
Sampling rate : 48.0 kHz
Frame rate : 46.875 FPS (1024 spf)
Compression mode : Lossy
Stream size : 121 MiB (12%)
Source stream size : 121 MiB (12%)
Language : English
Default : Yes
Alternate group : 1
Encoded date : UTC 2018-05-13 06:05:47
Tagged date : UTC 2018-05-13 06:07:05

Text
ID : 3
Format : Timed Text
Muxing mode : sbtl
Codec ID : tx3g
Duration : 53 min 15 s
Bit rate mode : Variable
Bit rate : 133 b/s
Stream size : 51.7 KiB (0%)
Language : English
Default : Yes
Forced : No
Alternate group : 2
Encoded date : UTC 2018-05-13 06:05:47
Tagged date : UTC 2018-05-13 06:05:47


Screenshots:

BBC - Cinema Through the Eye of Magnum (2017)

BBC - Cinema Through the Eye of Magnum (2017)

BBC - Cinema Through the Eye of Magnum (2017)

BBC - Cinema Through the Eye of Magnum (2017)