BBC - City in the Sky (2016)

Posted By: Tutorial
BBC - City in the Sky (2016)

BBC - City in the Sky (2016)
HDTV | 1280 x 720 | .MP4/AVC @ 3461 Kbps | 3x~59mn | 4.29 GB
Audio: English AAC 160 kbps, 2 channels |Subs: English
Genre: Documentary

What does it take to get a million people and their luggage off the ground and up in the air?
Part 1: Departure
Dallas Campbell and Dr Hannah Fry present a documentary exploring aviation, beginning with a look at the challenges of getting aircraft into the air. The programme features a visit to the world's busiest airport to discover the work that goes into getting its millions of visitors off the ground. Plus, the construction of the world's largest passenger plane and the dangers of taking off from the coldest city on Earth.

Part 2: Airborne
Dallas Campbell and Dr Hannah Fry examine the advanced technology needed to ensure the safety of the one million people estimated to be travelling by plane at any given time. They discover the daily routines of air traffic controllers in the busiest airspace in the world and pilots flying thousands of miles at night. Plus, transporting horses by planes and in-flight medical advice.

Part 3: Arrival
Dallas and Hannah conclude the series by examining the process of bringing a plane safely to the ground. Hannah meets air traffic controllers at the world's busiest airport and visits a site that has seen over 2000 unscheduled landings in the last decade. Dallas sits in the cockpit of a plane heading for Paro, Bhutan, a place where only 26 pilots in the world are qualified to land.

General
Complete name : BBC.City.in.the.Sky.1of3.mp4
Format : MPEG-4
Format profile : Base Media
Codec ID : isom
File size : 1.50 GiB
Duration : 59mn 11s
Overall bit rate mode : Variable
Overall bit rate : 3 625 Kbps
Encoded date : UTC 2016-06-20 10:03:13
Tagged date : UTC 2016-06-20 10:03:13
Writing application : My MP4Box GUI 0.6.0.6

Video
ID : 1
Format : AVC
Format/Info : Advanced Video Codec
Format profile : High@L4.1
Format settings, CABAC : Yes
Format settings, ReFrames : 4 frames
Codec ID : avc1
Codec ID/Info : Advanced Video Coding
Duration : 59mn 11s
Bit rate : 3 461 Kbps
Maximum bit rate : 14.8 Mbps
Width : 1 280 pixels
Height : 720 pixels
Display aspect ratio : 16:9
Frame rate mode : Constant
Frame rate : 25.000 fps
Color space : YUV
Chroma subsampling : 4:2:0
Bit depth : 8 bits
Scan type : Progressive
Bits/(Pixel*Frame) : 0.150
Stream size : 1.43 GiB (95%)
Title : BBC.City.in.the.Sky.1of3.Departure.720p.HDTV.x264.AAC.MVGroup.org.mp4
Writing library : x264 core 142 r2479 dd79a61
Encoding settings : cabac=1 / ref=1 / deblock=1:0:0 / analyse=0x3:0x3 / me=dia / subme=1 / psy=1 / psy_rd=1.00:0.00 / mixed_ref=0 / me_range=16 / chroma_me=1 / trellis=0 / 8x8dct=1 / cqm=0 / deadzone=21,11 / fast_pskip=1 / chroma_qp_offset=0 / threads=3 / lookahead_threads=1 / sliced_threads=0 / nr=0 / decimate=1 / interlaced=0 / bluray_compat=0 / constrained_intra=0 / bframes=3 / b_pyramid=2 / b_adapt=1 / b_bias=0 / direct=1 / weightb=1 / open_gop=0 / weightp=1 / keyint=250 / keyint_min=25 / scenecut=40 / intra_refresh=0 / rc_lookahead=0 / rc=crf / mbtree=0 / crf=20.0 / qcomp=0.60 / qpmin=0 / qpmax=69 / qpstep=4 / vbv_maxrate=62500 / vbv_bufsize=78125 / crf_max=0.0 / nal_hrd=none / filler=0 / ip_ratio=1.40 / pb_ratio=1.30 / aq=1:1.00
Encoded date : UTC 2016-06-19 23:00:02
Tagged date : UTC 2016-06-20 10:04:30
Color primaries : BT.709-5, BT.1361, IEC 61966-2-4, SMPTE RP177
Transfer characteristics : BT.709-5, BT.1361
Matrix coefficients : BT.709-5, BT.1361, IEC 61966-2-4 709, SMPTE RP177

Audio
ID : 2
Format : AAC
Format/Info : Advanced Audio Codec
Format profile : LC
Codec ID : 40
Duration : 59mn 10s
Bit rate mode : Variable
Bit rate : 160 Kbps
Maximum bit rate : 174 Kbps
Channel(s) : 2 channels
Channel positions : Front: L R
Sampling rate : 48.0 KHz
Compression mode : Lossy
Stream size : 67.9 MiB (4%)
Title : BBC.City.in.the.Sky.1of3.Departure.720p.HDTV.x264.AAC.MVGroup.org.mp4
Language : English
Encoded date : UTC 2016-06-20 10:04:25
Tagged date : UTC 2016-06-20 10:04:30

Text
ID : 3
Format : Timed text
Codec ID : tx3g
Duration : 58mn 40s
Bit rate mode : Variable
Bit rate : 85 bps
Stream size : 36.7 KiB (0%)
Title : BBC.City.in.the.Sky.1of3.Departure.720p.HDTV.x264.AAC.MVGroup.org.srt
Encoded date : UTC 2016-06-20 10:04:30
Tagged date : UTC 2016-06-20 10:04:30
Screenshots

BBC - City in the Sky (2016)

BBC - City in the Sky (2016)

BBC - City in the Sky (2016)

BBC - City in the Sky (2016)

BBC - City in the Sky (2016)

Welcome to my blog - daily update!

BBC - City in the Sky (2016)