Clans of Scotland (2009)

Posted By: Polik88
Clans of Scotland (2009)

Clans of Scotland (2009)
DVDRip | English | AVI/XviD 25.000 fps 959 Kbps | 640x360 | MP3 128 Kbps 48.0 khz | 6x29mn | 6x230 MB
Genre: Documentary

The Highlands and Islands of Scotland have been shaped by centuries of clan history. A past overflowing with countless tales of bloodshed and bravery, rivalry and revenge. Presenter and programme maker Paul Murton makes a personal journey beyond the myths and the tartan to uncover the real story of Scotland’s Highland Clans

Episod 6 Clan Hamilton
Episod 5 Clan Robertson
Episod 4 Clan Leslie
Episod 3 Clan Gordon
Episod 2 Clan Scott
Episod 1 Clan McNeil
General
Complete name : Scotland's Clans - Gordon.avi
Format : AVI
Format/Info : Audio Video Interleave
File size : 231 MiB
Duration : 29mn 18s
Overall bit rate : 1 099 Kbps
Writing application : Lavf54.63.104

Video
ID : 0
Format : xvid
Codec ID : xvid
Duration : 29mn 18s
Bit rate : 959 Kbps
Width : 640 pixels
Height : 360 pixels
Display aspect ratio : 16:9
Frame rate : 25.000 fps
Bits/(Pixel*Frame) : 0.166
Stream size : 201 MiB (87%)

Audio
ID : 1
Format : MPEG Audio
Format version : Version 1
Format profile : Layer 3
Mode : Joint stereo
Mode extension : MS Stereo
Codec ID : 55
Codec ID/Hint : MP3
Duration : 29mn 18s
Bit rate mode : Constant
Bit rate : 128 Kbps
Channel(s) : 2 channels
Sampling rate : 48.0 KHz
Compression mode : Lossy
Stream size : 26.8 MiB (12%)
Alignment : Aligned on interleaves
Interleave, duration : 24 ms (0.60 video frame)

Screenshots

Clans of Scotland (2009)

Clans of Scotland (2009)

Clans of Scotland (2009)

no mirrors please.
Visit Polik88 Blog Here
no password

Clans of Scotland (2009)