Coco (2017)

Posted By: Tavaz
2160p (4k UHD) / BDRip IMDb
Coco (2017)

Coco (2017)
BDRip | MKV | 3840x2160 | English | H265 @ 5030 kbps | AC-3 @ 640 kbps | 1 h 45 min | 4.25 GiB
Subtitles: Portuguese, Spanish, French, English
Genre: Adventure, Animation, Comedy, Family

Despite his family’s baffling generations-old ban on music, Miguel dreams of becoming an accomplished musician like his idol, Ernesto de la Cruz. Desperate to prove his talent, Miguel finds himself in the stunning and colorful Land of the Dead following a mysterious chain of events. Along the way, he meets charming trickster Hector, and together, they set off on an extraordinary journey to unlock the real story behind Miguel's family history.

72c5dcf34946403eb84a04d2644f34bd.mkv (4.3 GB)



General
Complete name : ./72c5dcf34946403eb84a04d2644f34bd.mkv
Format : Matroska
Format version : Version 4 / Version 2
File size : 4.25 GiB
Duration : 1 h 45 min
Overall bit rate : 5 795 kb/s
Encoded date : UTC 2018-03-03 13:34:12
Writing application : mkvmerge v21.0.0 ('Tardigrades Will Inherit The Earth') 64-bit
Writing library : libebml v1.3.5 + libmatroska v1.4.8
Cover : Yes
Attachments : cover.jpg

Video
ID : 1
Format : HEVC
Format/Info : High Efficiency Video Coding
Format profile : Main 10@L5@Main
Codec ID : V_MPEGH/ISO/HEVC
Duration : 1 h 45 min
Bit rate : 5 030 kb/s
Width : 3 840 pixels
Height : 2 160 pixels
Display aspect ratio : 16:9
Frame rate mode : Constant
Frame rate : 23.976 (24000/1001) FPS
Color space : YUV
Chroma subsampling : 4:2:0
Bit depth : 10 bits
Bits/(Pixel*Frame) : 0.025
Stream size : 3.69 GiB (87%)
Title : [SGJ5-LorD]
Language : English
Default : Yes
Forced : No
Color range : Limited
Color primaries : BT.2020
Transfer characteristics : PQ
Matrix coefficients : BT.2020 non-constant

Audio
ID : 2
Format : AC-3
Format/Info : Audio Coding 3
Format settings, Endianness : Big
Codec ID : A_AC3
Duration : 1 h 45 min
Bit rate mode : Constant
Bit rate : 640 kb/s
Channel(s) : 6 channels
Channel positions : Front: L C R, Side: L R, LFE
Sampling rate : 48.0 kHz
Frame rate : 31.250 FPS (1536 SPF)
Bit depth : 16 bits
Compression mode : Lossy
Stream size : 481 MiB (11%)
Title : Compatibility Track / Dolby Digital Audio / 5.1 / 48 kHz / 640 kbps
Language : English
Service kind : Complete Main
Default : Yes
Forced : No

Text #1
ID : 3
Format : UTF-8
Codec ID : S_TEXT/UTF8
Codec ID/Info : UTF-8 Plain Text
Duration : 1 h 35 min
Bit rate : 66 b/s
Count of elements : 1488
Stream size : 46.4 KiB (0%)
Title : Brazilian
Language : Portuguese
Default : Yes
Forced : No

Text #2
ID : 4
Format : PGS
Muxing mode : zlib
Codec ID : S_HDMV/PGS
Codec ID/Info : Picture based subtitle format used on BDs/HD-DVDs
Duration : 1 h 44 min
Bit rate : 37.0 kb/s
Count of elements : 2344
Stream size : 27.6 MiB (1%)
Language : English
Default : No
Forced : No

Text #3
ID : 5
Format : PGS
Muxing mode : zlib
Codec ID : S_HDMV/PGS
Codec ID/Info : Picture based subtitle format used on BDs/HD-DVDs
Duration : 1 h 44 min
Bit rate : 44.8 kb/s
Count of elements : 3426
Stream size : 33.4 MiB (1%)
Title : SDH
Language : English
Default : No
Forced : No

Text #4
ID : 6
Format : PGS
Muxing mode : zlib
Codec ID : S_HDMV/PGS
Codec ID/Info : Picture based subtitle format used on BDs/HD-DVDs
Duration : 1 h 44 min
Bit rate : 36.8 kb/s
Count of elements : 2366
Stream size : 27.5 MiB (1%)
Language : French
Default : No
Forced : No

Text #5
ID : 7
Format : PGS
Muxing mode : zlib
Codec ID : S_HDMV/PGS
Codec ID/Info : Picture based subtitle format used on BDs/HD-DVDs
Duration : 1 h 44 min
Bit rate : 34.9 kb/s
Count of elements : 2242
Stream size : 26.0 MiB (1%)
Title : Latin American
Language : Spanish
Default : No
Forced : No

Text #6
ID : 8
Format : PGS
Muxing mode : zlib
Codec ID : S_HDMV/PGS
Codec ID/Info : Picture based subtitle format used on BDs/HD-DVDs
Duration : 1 h 44 min
Bit rate : 73.5 kb/s
Count of elements : 3768
Stream size : 54.8 MiB (1%)
Title : Commentary by director Lee Unkrich, co-director Adrian Molina and producer Darla K. Anderson
Language : English
Default : No
Forced : No

Text #7
ID : 9
Format : PGS
Muxing mode : zlib
Codec ID : S_HDMV/PGS
Codec ID/Info : Picture based subtitle format used on BDs/HD-DVDs
Duration : 1 h 44 min
Bit rate : 78.2 kb/s
Count of elements : 3914
Stream size : 58.3 MiB (1%)
Title : Commentary by director Lee Unkrich, co-director Adrian Molina and producer Darla K. Anderson - SDH
Language : English
Default : No
Forced : No

Text #8
ID : 10
Format : PGS
Muxing mode : zlib
Codec ID : S_HDMV/PGS
Codec ID/Info : Picture based subtitle format used on BDs/HD-DVDs
Duration : 1 h 44 min
Bit rate : 61.3 kb/s
Count of elements : 3768
Stream size : 45.7 MiB (1%)
Title : Commentary by director Lee Unkrich, co-director Adrian Molina and producer Darla K. Anderson
Language : French
Default : No
Forced : No

Text #9
ID : 11
Format : PGS
Muxing mode : zlib
Codec ID : S_HDMV/PGS
Codec ID/Info : Picture based subtitle format used on BDs/HD-DVDs
Duration : 1 h 44 min
Bit rate : 64.4 kb/s
Count of elements : 3768
Stream size : 48.0 MiB (1%)
Title : Commentary by director Lee Unkrich, co-director Adrian Molina and producer Darla K. Anderson - Latin American
Language : Spanish
Default : No
Forced : No

Menu
00:00:00.000 : en:Chapter 1
00:06:39.816 : en:Chapter 2
00:08:41.521 : en:Chapter 3
00:11:13.589 : en:Chapter 4
00:14:20.067 : en:Chapter 5
00:17:06.900 : en:Chapter 6
00:18:20.557 : en:Chapter 7
00:22:05.991 : en:Chapter 8
00:24:19.958 : en:Chapter 9
00:27:44.829 : en:Chapter 10
00:29:07.912 : en:Chapter 11
00:32:15.266 : en:Chapter 12
00:35:18.032 : en:Chapter 13
00:41:25.524 : en:Chapter 14
00:47:04.613 : en:Chapter 15
00:50:54.176 : en:Chapter 16
00:54:23.885 : en:Chapter 17
00:56:45.026 : en:Chapter 18
01:01:42.615 : en:Chapter 19
01:03:28.137 : en:Chapter 20
01:08:58.217 : en:Chapter 21
01:15:17.262 : en:Chapter 22
01:18:56.773 : en:Chapter 23
01:21:31.761 : en:Chapter 24
01:24:31.816 : en:Chapter 25
01:28:23.339 : en:Chapter 26
01:33:14.672 : en:Chapter 27
01:36:10.181 : en:Chapter 28





Coco (2017)


Coco (2017)


Coco (2017)


Coco (2017)


Coco (2017)