Subcategories

Collateral Beauty (2016)

Posted By: JohnSmith
Collateral Beauty (2016)

Collateral Beauty (2016)
BDRip LD | AVI / XviD@1750 kb/s | 720x304 | 1h 36mn | 1.27 GB | Italian: MP3, 128 kb/s (2 ch)
BDRip MD | AVI / XviD@1886 kb/s | 720x304 | 1h 36mn | 1.27 GB | Italian: MP3, 128 kb/s (2 ch)
Genre: Drama

Un pubblicitario di successo di New York vive una profonda tragedia personale che lo porta a isolarsi da tutto e tutti. I suoi colleghi escogitano però un drastico piano per costringerlo a confrontarsi con il suo dolore in un modo sorprendente e profondamente umano.

IMDB - 1 win & 3 nominations.



General
Complete name : D:\Collateral.Beauty.2016.iTALiAN.LD.BDRip.XviD-CriMiNaL.avi
Format : AVI
Format/Info : Audio Video Interleave
File size : 1.27 GiB
Duration : 1 h 36 min
Overall bit rate : 1 886 kb/s
Writing library : VirtualDub build 35491/release

Video
ID : 0
Format : MPEG-4 Visual
Format profile : Advanced Simple@L5
Format settings, BVOP : 2
Format settings, QPel : No
Format settings, GMC : No warppoints
Format settings, Matrix : Default (MPEG)
Muxing mode : Packed bitstream
Codec ID : XVID
Codec ID/Hint : XviD
Duration : 1 h 36 min
Bit rate : 1 748 kb/s
Width : 720 pixels
Height : 304 pixels
Display aspect ratio : 2.35:1
Frame rate : 23.976 (23976/1000) FPS
Color space : YUV
Chroma subsampling : 4:2:0
Bit depth : 8 bits
Scan type : Progressive
Compression mode : Lossy
Bits/(Pixel*Frame) : 0.333
Stream size : 1.18 GiB (93%)
Writing library : XviD 67

Audio
ID : 1
Format : MPEG Audio
Format version : Version 1
Format profile : Layer 3
Mode : Joint stereo
Mode extension : MS Stereo
Codec ID : 55
Codec ID/Hint : MP3
Duration : 1 h 36 min
Bit rate mode : Constant
Bit rate : 128 kb/s
Channel(s) : 2 channels
Sampling rate : 48.0 kHz
Compression mode : Lossy
Stream size : 88.5 MiB (7%)
Alignment : Split accross interleaves
Interleave, duration : 42 ms (1.00 video frame)
Interleave, preload duratio : 500 ms
Writing library : LAME3.99r
Encoding settings : -m j -V 4 -q 3 -lowpass 17 -b 128





General
Complete name : D:\Collateral.Beauty.2016.iTALiAN.MD.BDRip.XviD-FLASH.avi
Format : AVI
Format/Info : Audio Video Interleave
File size : 1.37 GiB
Duration : 1 h 36 min
Overall bit rate : 2 026 kb/s
Writing library : VirtualDub build 0/release

Video
ID : 0
Format : MPEG-4 Visual
Format profile : Advanced Simple@L5
Format settings, BVOP : 2
Format settings, QPel : No
Format settings, GMC : No warppoints
Format settings, Matrix : Default (H.263)
Codec ID : XVID
Codec ID/Hint : XviD
Duration : 1 h 36 min
Bit rate : 1 886 kb/s
Width : 720 pixels
Height : 304 pixels
Display aspect ratio : 2.35:1
Frame rate : 23.976 (24000/1001) FPS
Color space : YUV
Chroma subsampling : 4:2:0
Bit depth : 8 bits
Scan type : Progressive
Compression mode : Lossy
Bits/(Pixel*Frame) : 0.359
Stream size : 1.27 GiB (93%)
Writing library : XviD 67

Audio
ID : 1
Format : MPEG Audio
Format version : Version 1
Format profile : Layer 3
Mode : Joint stereo
Mode extension : MS Stereo
Codec ID : 55
Codec ID/Hint : MP3
Duration : 1 h 36 min
Bit rate mode : Constant
Bit rate : 128 kb/s
Channel(s) : 2 channels
Sampling rate : 48.0 kHz
Compression mode : Lossy
Stream size : 88.5 MiB (6%)
Alignment : Aligned on interleaves
Interleave, duration : 24 ms (0.58 video frame)
Interleave, preload duratio : 480 ms




Screenshots BDRip LD

Collateral Beauty (2016)

Collateral Beauty (2016)

Collateral Beauty (2016)


Screenshots BDRip MD

Collateral Beauty (2016)

Collateral Beauty (2016)

Collateral Beauty (2016)