Tags
Language
Tags

Con Air (1997)

Posted By: Tavaz
1080p (FullHD) / BDRip IMDb
Con Air (1997)

Con Air (1997)
BDRip | MOV | 1920x816 | English | H264 @ 3302 kbps | AC-3 @ 448 kbps | 1 h 55 min | 3.03 GiB
Subtitles: English
Genre: Action, Thriller, Crime

When the government puts all its rotten criminal eggs in one airborne basket, it's asking for trouble. Before you can say, "Pass the barf bag," the crooks control the plane, led by creepy Cyrus "The Virus" Grissom. Watching his every move is the just-released Cameron Poe, who'd rather reunite with his family.

9332c5ddb256a398e50f2add0c8075af.mp4 (3.0 GB)



General
Complete name : ./9332c5ddb256a398e50f2add0c8075af.mp4
Format : MPEG-4
Format profile : Base Media / Version 2
Codec ID : mp42 (mp42/isom/avc1)
File size : 3.03 GiB
Duration : 1 h 55 min
Overall bit rate mode : Variable
Overall bit rate : 3 760 kb/s
Movie name : ConAir.1997.1080p.BluRay.H264.AC3.DD5.1.Will1869
Encoded date : UTC 2020-04-28 17:56:34
Tagged date : UTC 2020-04-28 18:06:20
Writing application : DVDFab 11.0.4.2
Cover : Yes

Video
ID : 1
Format : AVC
Format/Info : Advanced Video Codec
Format profile : Main@L4
Format settings : CABAC / 2 Ref Frames
Format settings, CABAC : Yes
Format settings, RefFrames : 2 frames
Format settings, GOP : M=1, N=24
Codec ID : avc1
Codec ID/Info : Advanced Video Coding
Duration : 1 h 55 min
Source duration : 1 h 55 min
Bit rate mode : Variable
Bit rate : 3 302 kb/s
Maximum bit rate : 5 016 kb/s
Width : 1 920 pixels
Height : 816 pixels
Display aspect ratio : 2.35:1
Frame rate mode : Constant
Frame rate : 23.976 (24000/1001) FPS
Color space : YUV
Chroma subsampling : 4:2:0
Bit depth : 8 bits
Scan type : Progressive
Bits/(Pixel*Frame) : 0.088
Stream size : 2.66 GiB (88%)
Source stream size : 2.66 GiB (88%)
Encoded date : UTC 2020-04-28 17:56:34
Tagged date : UTC 2020-04-28 18:06:20
Color primaries : BT.709
Transfer characteristics : BT.709
Matrix coefficients : BT.709

Audio
ID : 2
Format : AC-3
Format/Info : Audio Coding 3
Format settings, Endianness : Big
Codec ID : ac-3
Duration : 1 h 55 min
Bit rate mode : Constant
Bit rate : 448 kb/s
Channel(s) : 6 channels
Channel positions : Front: L C R, Side: L R, LFE
Sampling rate : 48.0 kHz
Frame rate : 31.250 FPS (1536 SPF)
Bit depth : 16 bits
Compression mode : Lossy
Stream size : 370 MiB (12%)
Title : English (ac3 5.1)
Language : English
Service kind : Complete Main
Default : Yes
Alternate group : 1
Encoded date : UTC 2020-04-28 17:56:34
Tagged date : UTC 2020-04-28 18:06:20

Text
ID : 3
Format : VobSub
Codec ID : mp4s-E0
Codec ID/Info : The same subtitle format used on DVDs
Duration : 1 h 48 min
Bit rate mode : Variable
Bit rate : 7 844 b/s
Maximum bit rate : 3 826 Mb/s
Stream size : 6.07 MiB (0%)
Language : English
Default : Yes
Forced : No
Alternate group : 2
Encoded date : UTC 2020-04-28 17:56:34
Tagged date : UTC 2020-04-28 18:05:47





Con Air (1997)


Con Air (1997)


Con Air (1997)


Con Air (1997)


Con Air (1997)