Conspiracy Chronicles: 9/11, Aliens and the Illuminati (2019)

Posted By: notbanned
720p (HD) / HDTV
Conspiracy Chronicles: 9/11, Aliens and the Illuminati (2019)

Conspiracy Chronicles: 9/11, Aliens and the Illuminati (2019)
WEB-DL | 1280x720 | .MKV/AVC @ 4488 Kbps | 1 h 12 min | 2.39 GiB
Audio: English EAC3 224 kbps, 2 channels | Subs: English
Genre: Documentary

Insiders reveal a terrifying, unholy alliance that was formed in the 1940's between the elite force that truly governs our planet, the Illuminati, and an Extraterrestrial race that has inhabited the Earth since the dawn of man.

General
Unique ID : 15503434392173669318562865682780016333 (0xBA9DA549E49E45ECE96282B79B44ECD)
Complete name : Conspiracy.Chronicles.911.Aliens.and.the.Illuminati.2019.720p.mkv
Format : Matroska
Format version : Version 4 / Version 2
File size : 2.39 GiB
Duration : 1 h 12 min
Overall bit rate : 4 714 kb/s

Video
ID : 1
Format : AVC
Format/Info : Advanced Video Codec
Format profile : High@L3.1
Format settings, CABAC : Yes
Format settings, ReFrames : 4 frames
Codec ID : V_MPEG4/ISO/AVC
Duration : 1 h 12 min
Bit rate mode : Constant
Bit rate : 4 488 kb/s
Nominal bit rate : 6 000 kb/s
Width : 1 280 pixels
Height : 720 pixels
Display aspect ratio : 16:9
Frame rate mode : Constant
Frame rate : 29.970 (30000/1001) FPS
Color space : YUV
Chroma subsampling : 4:2:0
Bit depth : 8 bits
Scan type : Progressive
Bits/(Pixel*Frame) : 0.162
Stream size : 2.27 GiB (95%)
Default : Yes
Forced : No
Color range : Limited
Color primaries : BT.709
Transfer characteristics : BT.709
Matrix coefficients : BT.709

Audio
ID : 2
Format : E-AC-3
Format/Info : Enhanced Audio Coding 3
Format settings, Endianness : Big
Codec ID : A_EAC3
Duration : 1 h 12 min
Bit rate mode : Constant
Bit rate : 224 kb/s
Channel(s) : 2 channels
Channel positions : Front: L R
Sampling rate : 48.0 kHz
Frame rate : 187.500 FPS (256 spf)
Compression mode : Lossy
Stream size : 116 MiB (5%)
Language : English
Service kind : Complete Main
Default : Yes
Forced : No

Text #1
ID : 3
Format : UTF-8
Codec ID : S_TEXT/UTF8
Codec ID/Info : UTF-8 Plain Text
Duration : 1 h 11 min
Bit rate : 98 b/s
Count of elements : 1262
Stream size : 51.7 KiB (0%)
Language : English
Default : No
Forced : No

Text #2
ID : 4
Format : UTF-8
Codec ID : S_TEXT/UTF8
Codec ID/Info : UTF-8 Plain Text
Duration : 1 h 11 min
Bit rate : 98 b/s
Count of elements : 1262
Stream size : 51.8 KiB (0%)
Title : SDH
Language : English
Default : No
Forced : No


Screenshots:

Conspiracy Chronicles: 9/11, Aliens and the Illuminati (2019)

Conspiracy Chronicles: 9/11, Aliens and the Illuminati (2019)

Conspiracy Chronicles: 9/11, Aliens and the Illuminati (2019)

Conspiracy Chronicles: 9/11, Aliens and the Illuminati (2019)