Cosa dirà la gente (2017)

Posted By: Tavaz
SD / TS MD IMDb
Cosa dirà la gente (2017)

Cosa dirà la gente (2017)
AVI | 608x272 | MP4V-ES @ 824 kbps | MPEG Audio @ 96 kbps | 1 h 42 min | 1.30 GiB
Genre: Drama

Cosa dirà la gente, il film diretto da Iram Haq, vede protagonista Nisha (Maria Mozhdah), un'adolescente di origine pachistana che vive a Oslo.

Cosa.Dira.La.Gente.2018.iTALiAN.MD.HDTS.XviD-iND.avi (1.3 GB)



General
Complete name : ./Cosa.Dira.La.Gente.2018.iTALiAN.MD.HDTS.XviD-iND.avi
Format : AVI
Format/Info : Audio Video Interleave
File size : 1.30 GiB
Duration : 1 h 42 min
Overall bit rate : 1 821 kb/s
IsTruncated : Yes

Video
ID : 0
Format : MPEG-4 Visual
Format profile : Simple@L3
Format settings, BVOP : 1
Format settings, QPel : No
Format settings, GMC : No warppoints
Format settings, Matrix : Default (H.263)
Muxing mode : Packed bitstream
Codec ID : DX50
Codec ID/Hint : DivX 5
Duration : 1 h 42 min
Bit rate : 824 kb/s
Nominal bit rate : 4 854 kb/s
Width : 608 pixels
Height : 272 pixels
Display aspect ratio : 2.25:1
Frame rate : 25.000 FPS
Color space : YUV
Chroma subsampling : 4:2:0
Bit depth : 8 bits
Scan type : Progressive
Compression mode : Lossy
Bits/(Pixel*Frame) : 0.199
Stream size : 604 MiB (45%)
Writing library : XviD 1.1.2 (UTC 2006-11-01)

Audio
ID : 1
Format : MPEG Audio
Format version : Version 1
Format profile : Layer 3
Format settings : Joint stereo / MS Stereo
Mode : Joint stereo
Mode extension : MS Stereo
Codec ID : 55
Codec ID/Hint : MP3
Duration : 1 h 42 min
Bit rate mode : Constant
Bit rate : 96.0 kb/s
Channel(s) : 2 channels
Sampling rate : 48.0 kHz
Compression mode : Lossy
Delay relative to video : 17 ms
Stream size : 70.3 MiB (5%)
Alignment : Split accross interleaves
Interleave, duration : 24 ms (0.60 video frame)
Interleave, preload duration : 47 ms





Cosa dirà la gente (2017)


Cosa dirà la gente (2017)


Cosa dirà la gente (2017)


Cosa dirà la gente (2017)


Cosa dirà la gente (2017)