Cosmos A Space Time Odyssey S01E01-E02 (2014)

Posted By: vivid23
Cosmos A Space Time Odyssey S01E01-E02 (2014)

Cosmos A Space Time Odyssey S01E01-E02 (2014)
HDTV | 1280x720 | MKV/x264 @ 3681 Kbps | 2x43mn | Audio: English AC3 448 kbps, 6 channels | Subs: None | 2x1.29 GB
Genre: Documentary

More than three decades after the debut of “Cosmos,” Carl Sagan’s stunning and iconic exploration of the universe as revealed by science, FOX sets off on a voyage for the stars with “COSMOS: A SPACE-TIME ODYSSEY”. Seth MacFarlane (FAMILY GUY, AMERICAN DAD) has teamed up with Sagan’s original creative collaborators – writer/producer Ann Druyan and astrophysicist Steven Soter – to conceive a 13-part “docu-series” that will serve as a successor to the Emmy and Peabody Award-winning original series.

More info

Season 01 , Episode 1 – “Standing Up in the Milky Way”
More than three decades after the debut of Carl Sagan’s groundbreaking and iconic series, “Cosmos: A Personal Voyage,” it’s time once again to set sail for the stars. Host and astrophysicist Neil deGrasse Tyson sets off on the Ship of the Imagination to discover earth’s Cosmic Address and its coordinates in space and time.

Season 01 , Episode 2 – “Some of the Things That Molecules Do”
A look at canine breeds and how they’re related to wolves; an examination of the human eye. Also: a visit to the Hall of Extinction.

Video
ID : 1
Format : AVC
Format/Info : Advanced Video Codec
Format profile : High@L4.1
Format settings, CABAC : Yes
Format settings, ReFrames : 5 frames
Format settings, GOP : M=6, N=25
Codec ID : V_MPEG4/ISO/AVC
Duration : 43mn 47s
Bit rate : 3 681 Kbps
Width : 1 280 pixels
Height : 720 pixels
Display aspect ratio : 16:9
Frame rate : 23.976 fps
Color space : YUV
Chroma subsampling : 4:2:0
Bit depth : 8 bits
Scan type : Progressive
Bits/(Pixel*Frame) : 0.167
Stream size : 1.13 GiB (87%)
Writing library : x264 core 142 r2389 956c8d8
Encoding settings : cabac=1 / ref=5 / deblock=1:0:0 / analyse=0x3:0x113 / me=umh / subme=8 / psy=1 / psy_rd=1.00:0.00 / mixed_ref=1 / me_range=16 / chroma_me=1 / trellis=1 / 8x8dct=1 / cqm=0 / deadzone=21,11 / fast_pskip=1 / chroma_qp_offset=-2 / threads=18 / lookahead_threads=4 / sliced_threads=0 / nr=0 / decimate=1 / interlaced=0 / bluray_compat=0 / constrained_intra=0 / bframes=5 / b_pyramid=2 / b_adapt=2 / b_bias=0 / direct=3 / weightb=1 / open_gop=0 / weightp=2 / keyint=250 / keyint_min=23 / scenecut=40 / intra_refresh=0 / rc_lookahead=50 / rc=crf / mbtree=1 / crf=20.0 / qcomp=0.60 / qpmin=0 / qpmax=69 / qpstep=4 / ip_ratio=1.40 / aq=1:1.00

Audio
ID : 2
Format : AC-3
Format/Info : Audio Coding 3
Mode extension : CM (complete main)
Codec ID : A_AC3
Duration : 43mn 47s
Bit rate mode : Constant
Bit rate : 448 Kbps
Channel(s) : 6 channels
Channel positions : Front: L C R, Side: L R, LFE
Sampling rate : 48.0 KHz
Bit depth : 16 bits
Compression mode : Lossy
Video delay : -84ms
Stream size : 140 MiB (11%)


Cosmos 			  		 	 	  		 	    	 			   		  	   		  	   		 	    	 			   		   	  		   	  			     	 			   		  	   		 	    		 						 A Space Time Odyssey S01E01-E02 (2014)

Cosmos A Space Time Odyssey S01E01-E02 (2014)




http://uploaded.net/file/eqdl7ghe/cosmos_01.part1.rar
http://uploaded.net/file/39gkdjag/cosmos_01.part2.rar
http://uploaded.net/file/scm3n3ta/cosmos_01.part3.rar
http://uploaded.net/file/hguhoiqs/cosmos_01.part4.rar
http://uploaded.net/file/9vx8p7k7/cosmos_02.part1.rar
http://uploaded.net/file/wtlr5asy/cosmos_02.part2.rar
http://uploaded.net/file/6mu7vaah/cosmos_02.part3.rar
http://uploaded.net/file/b3xxmdxf/cosmos_02.part4.rar

http://www.uploadable.ch/file/PUKrkGBeKKPH/cosmos_01.part1.rar
http://www.uploadable.ch/file/X6SEhBJsXCW5/cosmos_01.part2.rar
http://www.uploadable.ch/file/EWBnFXxJgpHF/cosmos_01.part2.rar
http://www.uploadable.ch/file/yFvHRAZm6nhx/cosmos_01.part3.rar
http://www.uploadable.ch/file/7xaY6zKbV7qr/cosmos_01.part4.rar
http://www.uploadable.ch/file/2PydrnQTG4Ne/cosmos_02.part1.rar
http://www.uploadable.ch/file/8fA6kENg489S/cosmos_02.part2.rar
http://www.uploadable.ch/file/WnTdjsTa7dVx/cosmos_02.part3.rar
http://www.uploadable.ch/file/Z3WGj4yXm4Ra/cosmos_02.part4.rar

http://rapidgator.net/file/f6e1067de84d980b067d21269f11f181/cosmos_01.part1.rar
http://rapidgator.net/file/02e47e0a0c855a6ed2c63cbf4aa01cc2/cosmos_01.part2.rar
http://rapidgator.net/file/b264334b01f0d41bf20f8fa9bc0f0fcd/cosmos_01.part3.rar
http://rapidgator.net/file/adb9dfb8bb063721afb58ab10baa1ec1/cosmos_01.part4.rar
http://rapidgator.net/file/060c399059f3aba431b671c2442573b5/cosmos_02.part1.rar
http://rapidgator.net/file/3dcb77fc301111c8ed56d7d9d0323e51/cosmos_02.part2.rar
http://rapidgator.net/file/2cc59769dea4d07d56157a81922d548d/cosmos_02.part3.rar
http://rapidgator.net/file/a0eb8140fff8d8a252530d6a00dc734f/cosmos_02.part4.rar