Cosmos A Space Time Odyssey S01E09-E10 (2014)

Posted By: vivid23
Cosmos A Space Time Odyssey S01E09-E10 (2014)

Cosmos A Space Time Odyssey S01E09-E10 (2014)
HDTV | 1280x720 | MKV/x264 @ 3301 Kbps | 2x41mn | Audio: English AC3 448 kbps, 6 channels | Subs: None | 2x1.11 GB
Genre: Documentary

More than three decades after the debut of “Cosmos,” Carl Sagan’s stunning and iconic exploration of the universe as revealed by science, FOX sets off on a voyage for the stars with “COSMOS: A SPACE-TIME ODYSSEY”. Seth MacFarlane (FAMILY GUY, AMERICAN DAD) has teamed up with Sagan’s original creative collaborators – writer/producer Ann Druyan and astrophysicist Steven Soter – to conceive a 13-part “docu-series” that will serve as a successor to the Emmy and Peabody Award-winning original series.

More info

Season 01 , Episode 9 – “The Lost Worlds of Planet Earth”
A profile of U.S. geologist Marie Tharp (1920-2006), who created the first comprehensive map of the entire ocean floor. Also: a look at the Earth’s autobiography according to its atoms, oceans, continents and all living things.

Season 01 , Episode 10 – “The Electric Boy”
A profile of Michael Faraday (1791-1867), an English scientist known for his experiments with electricity and magnetism.

Video
ID : 1
Format : AVC
Format/Info : Advanced Video Codec
Format profile : High@L4.1
Format settings, CABAC : Yes
Format settings, ReFrames : 5 frames
Codec ID : V_MPEG4/ISO/AVC
Duration : 41mn 32s
Bit rate : 3 301 Kbps
Width : 1 280 pixels
Height : 720 pixels
Display aspect ratio : 16:9
Frame rate : 23.976 fps
Color space : YUV
Chroma subsampling : 4:2:0
Bit depth : 8 bits
Scan type : Progressive
Bits/(Pixel*Frame) : 0.149
Stream size : 981 MiB (86%)
Writing library : x264 core 142 r2409 d6b4e63
Encoding settings : cabac=1 / ref=5 / deblock=1:0:0 / analyse=0x3:0x113 / me=umh / subme=8 / psy=1 / psy_rd=1.00:0.00 / mixed_ref=1 / me_range=16 / chroma_me=1 / trellis=1 / 8x8dct=1 / cqm=0 / deadzone=21,11 / fast_pskip=1 / chroma_qp_offset=-2 / threads=18 / lookahead_threads=4 / sliced_threads=0 / nr=0 / decimate=1 / interlaced=0 / bluray_compat=0 / constrained_intra=0 / bframes=5 / b_pyramid=2 / b_adapt=2 / b_bias=0 / direct=3 / weightb=1 / open_gop=0 / weightp=2 / keyint=250 / keyint_min=23 / scenecut=40 / intra_refresh=0 / rc_lookahead=50 / rc=crf / mbtree=1 / crf=20.0 / qcomp=0.60 / qpmin=0 / qpmax=69 / qpstep=4 / ip_ratio=1.40 / aq=1:1.00

Audio
ID : 2
Format : AC-3
Format/Info : Audio Coding 3
Mode extension : CM (complete main)
Codec ID : A_AC3
Duration : 41mn 32s
Bit rate mode : Constant
Bit rate : 448 Kbps
Channel(s) : 6 channels
Channel positions : Front: L C R, Side: L R, LFE
Sampling rate : 48.0 KHz
Bit depth : 16 bits
Compression mode : Lossy
Video delay : -84ms
Stream size : 133 MiB (12%)


Cosmos A Space Time Odyssey S01E09-E10 (2014)

Cosmos A Space Time Odyssey S01E09-E10 (2014)