National Geographic - Costa Concordia Disaster One Year On (2013)

Posted By: ParRus
National Geographic - Costa Concordia Disaster One Year On (2013)

National Geographic - Costa Concordia Disaster One Year On (2013)
HDTV 720p | English | MKV | 1280 x 720 | AVC ~2307 Kbps | 25 fps
AC-3 | 384 kbps | 48.0 KHz | 6 channels | 00:44:58 | 883 MB
Genre: Documentary

Get an extensive look at the series of events leading up to the sinking of the Costa Concordia cruise liner, and details plans to re-float the ship in one of the most expensive and challenging salvage operations ever attempted. The Costa Concordia was one of the world’s largest and most luxurious cruise ships ever built. So what happened? Why did the ship collide with a rock? Why wasn’t there an immediate call to abandon ship? Exactly what went wrong and who was at fault will be up to the courts, but this special takes a look at the reports, audio recordings, and personal accounts gathered thus far to help tell the story of that fateful night.
More Info: http://natgeotv.com/uk/costa-concordia-disaster-one-year-on/about

General
Complete name : 12.Jan.2013.055522.mkv
Format : Matroska
Format version : Version 2
File size : 883 MiB
Duration : 44mn 58s
Overall bit rate : 2 745 Kbps
Encoded date : UTC 2013-01-11 17:14:09
Writing application : mkvmerge v5.3.0 ('I could have danced') built on Feb 9 2012 10:38:07
Writing library : libebml v1.2.3 + libmatroska v1.3.0
Video #1
ID : 1
Format : AVC
Format/Info : Advanced Video Codec
Format profile : High@L4.1
Format settings, CABAC : Yes
Format settings, ReFrames : 5 frames
Codec ID : V_MPEG4/ISO/AVC
Duration : 44mn 58s
Bit rate : 2 307 Kbps
Width : 1 280 pixels
Height : 720 pixels
Display aspect ratio : 16:9
Frame rate : 25.000 fps
Color space : YUV
Chroma subsampling : 4:2:0
Bit depth : 8 bits
Scan type : Progressive
Bits/(Pixel*Frame) : 0.100
Stream size : 742 MiB (84%)
Writing library : x264 core 129 r2230 1cffe9f
Encoding settings : cabac=1 / ref=5 / deblock=1:0:0 / analyse=0x3:0x113 / me=umh / subme=8 / psy=1 / psy_rd=1.00:0.00 / mixed_ref=1 / me_range=16 / chroma_me=1 / trellis=1 / 8x8dct=1 / cqm=0 / deadzone=21,11 / fast_pskip=1 / chroma_qp_offset=-2 / threads=12 / lookahead_threads=2 / sliced_threads=0 / nr=0 / decimate=1 / interlaced=0 / bluray_compat=0 / constrained_intra=0 / bframes=3 / b_pyramid=2 / b_adapt=2 / b_bias=0 / direct=3 / weightb=1 / open_gop=0 / weightp=2 / keyint=250 / keyint_min=25 / scenecut=40 / intra_refresh=0 / rc_lookahead=50 / rc=crf / mbtree=1 / crf=21.0 / qcomp=0.60 / qpmin=0 / qpmax=69 / qpstep=4 / ip_ratio=1.40 / aq=1:1.00
Audio #2
ID : 2
Format : AC-3
Format/Info : Audio Coding 3
Mode extension : CM (complete main)
Codec ID : A_AC3
Duration : 44mn 58s
Bit rate mode : Constant
Bit rate : 384 Kbps
Channel(s) : 6 channels
Channel positions : Front: L C R, Side: L R, LFE
Sampling rate : 48.0 KHz
Bit depth : 16 bits
Compression mode : Lossy
Delay relative to video : 96ms
Stream size : 124 MiB (14%)
Language : English

National Geographic - Costa Concordia Disaster One Year On (2013)

National Geographic - Costa Concordia Disaster One Year On (2013)

National Geographic - Costa Concordia Disaster One Year On (2013)

National Geographic - Costa Concordia Disaster One Year On (2013)

National Geographic - Costa Concordia Disaster One Year On (2013)

For more, Visit my AH-blog

no mirrors please, Follow The Rules