Couple in a Hole (2015)

Posted By: JohnSmith
Couple in a Hole (2015)

Couple in a Hole (2015)
HDRip | MKV / AVC@1670 kb/s | 720x304 | 1h 44mn | 1.37 GB | English: AC3, 192 kb/s (2 ch)
WEB-DL 720p | MKV / AVC@4095 kb/s | 1280x532 | 1h 44mn | 3.11 GB | English: AAC, 155 kb/s (2 ch)
Genre: Drama | Thriller

A Scottish couple ends up living like savages in a hole in the middle of a vast forest in the French Pyrenees.

IMDB - 3 wins & 2 nominations.



General
Unique ID : 36641552700848799159337618137836631374 (0x1B90E806EAAE27C1DDC41922D3F7354E)
Complete name : C:\Couple.in.a.Hole.2015.HDRip.mkv
Format : Matroska
Format version : Version 2
File size : 1.37 GiB
Duration : 1h 44mn
Overall bit rate : 1 865 Kbps
Encoded date : UTC
Writing application : HandBrake 0.10.2 2015060900
Writing library : Lavf55.12.0

Video
ID : 1
Format : AVC
Format/Info : Advanced Video Codec
Format profile : Baseline@L3.1
Format settings, CABAC : No
Format settings, ReFrames : 1 frame
Codec ID : V_MPEG4/ISO/AVC
Duration : 1h 44mn
Bit rate : 1 670 Kbps
Width : 720 pixels
Height : 304 pixels
Display aspect ratio : 2.35:1
Frame rate mode : Constant
Frame rate : 24.000 fps
Color space : YUV
Chroma subsampling : 4:2:0
Bit depth : 8 bits
Scan type : Progressive
Bits/(Pixel*Frame) : 0.318
Stream size : 1.20 GiB (88%)
Writing library : x264 core 142 r2479 dd79a61
Encoding settings : cabac=0 / ref=1 / deblock=1:0:0 / analyse=0x1:0x111 / me=hex / subme=2 / psy=1 / psy_rd=1.00:0.00 / mixed_ref=0 / me_range=16 / chroma_me=1 / trellis=0 / 8x8dct=0 / cqm=0 / deadzone=21,11 / fast_pskip=1 / chroma_qp_offset=0 / threads=12 / lookahead_threads=2 / sliced_threads=0 / nr=0 / decimate=1 / interlaced=0 / bluray_compat=0 / constrained_intra=0 / bframes=0 / weightp=0 / keyint=240 / keyint_min=24 / scenecut=40 / intra_refresh=0 / rc_lookahead=10 / rc=2pass / mbtree=1 / bitrate=1670 / ratetol=1.0 / qcomp=0.60 / qpmin=0 / qpmax=69 / qpstep=4 / cplxblur=20.0 / qblur=0.5 / vbv_maxrate=14000 / vbv_bufsize=14000 / nal_hrd=none / filler=0 / ip_ratio=1.40 / aq=1:1.00
Default : Yes
Forced : No
Color range : Limited
Color primaries : BT.709
Transfer characteristics : BT.709
Matrix coefficients : BT.709

Audio
ID : 2
Format : AC-3
Format/Info : Audio Coding 3
Mode extension : CM (complete main)
Format settings, Endianness : Big
Codec ID : A_AC3
Duration : 1h 44mn
Bit rate mode : Constant
Bit rate : 192 Kbps
Channel(s) : 2 channels
Channel positions : Front: L R
Sampling rate : 48.0 KHz
Compression mode : Lossy
Delay relative to video : -5ms
Stream size : 144 MiB (10%)
Title : Stereo
Language : English
Default : Yes
Forced : No



General
Unique ID : 242897187890885717376715060775804536927 (0xB6BC4BF83E6EB437A102DD8DF4A5085F)
Complete name : D:\Downloads\Couple.in.a.Hole.2015.720p.WEB-DL.x264.AAC-ETRG\Couple.in.a.Hole.2015.720p.WEB-DL.x264.AAC-ETRG.mkv
Format : Matroska
Format version : Version 4 / Version 2
File size : 3.11 GiB
Duration : 1h 44mn
Overall bit rate : 4 253 Kbps
Encoded date : UTC 2016-04-11 11:18:27
Writing application : mkvmerge v9.0.1 ('Obstacles') 64bit
Writing library : libebml v1.3.3 + libmatroska v1.4.4
DURATION : 01:44:47.125000000
NUMBER_OF_FRAMES : 150891
NUMBER_OF_BYTES : 3218928083
_STATISTICS_WRITING_APP : mkvmerge v9.0.1 ('Obstacles') 64bit
_STATISTICS_WRITING_DATE_UT : 2016-04-11 11:18:27
_STATISTICS_TAGS : BPS DURATION NUMBER_OF_FRAMES NUMBER_OF_BYTES

Video
ID : 2
Format : AVC
Format/Info : Advanced Video Codec
Format profile : Main@L3.1
Format settings, CABAC : No
Format settings, ReFrames : 2 frames
Codec ID : V_MPEG4/ISO/AVC
Duration : 1h 44mn
Width : 1 280 pixels
Height : 532 pixels
Display aspect ratio : 2.40:1
Frame rate mode : Constant
Frame rate : 24.000 fps
Color space : YUV
Chroma subsampling : 4:2:0
Bit depth : 8 bits
Scan type : Progressive
Language : English
Default : Yes
Forced : No
Color range : Limited
Color primaries : BT.709
Transfer characteristics : BT.709
Matrix coefficients : BT.709

Audio
ID : 1
Format : AAC
Format/Info : Advanced Audio Codec
Format profile : LC
Codec ID : A_AAC
Duration : 1h 44mn
Channel(s) : 2 channels
Channel positions : Front: L R
Sampling rate : 48.0 KHz
Compression mode : Lossy
Language : English
Default : Yes
Forced : No

Menu
00:00:00.000 : en:Chapter 1
00:09:32.833 : en:Chapter 2
00:17:30.124 : en:Chapter 3
00:27:58.124 : en:Chapter 4
00:35:15.790 : en:Chapter 5
00:45:41.915 : en:Chapter 6
00:53:00.040 : en:Chapter 7
01:01:13.915 : en:Chapter 8
01:12:35.998 : en:Chapter 9
01:20:07.831 : en:Chapter 10
01:28:03.706 : en:Chapter 11
01:40:43.289 : en:Chapter 12


Screenshots HDRip

Couple in a Hole (2015)

Couple in a Hole (2015)

Couple in a Hole (2015)


Screenshots WEB-DL 720p

Couple in a Hole (2015)

Couple in a Hole (2015)

Couple in a Hole (2015)