Tags
Language
Tags

Cowboys et envahisseurs (2011)

Posted By: FenixN
Cowboys et envahisseurs (2011)

Cowboys et envahisseurs (2011)
TS | AVI / XviD, 720 kb/s | 644x272 | 01:53:52 | French: MP3, 128 kb/s (2 ch) | 700 mb
Genre: Action, Sci-Fi, Thriller | USA

Arizona, 1873. Un homme qui a perdu tout souvenir de son passé se retrouve à Absolution, petite ville austère perdue en plein désert. Le seul indice relatif à son histoire est un mystérieux bracelet qui enserre son poignet. Alors que la ville est sous l?emprise du terrible colonel Dolarhyde, les habitants d?Absolution vont être confrontés à une menace bien plus inquiétante, venue d?ailleurs…

imdb: 6,8/10 (9 697 votes)

Format : AVI
Format/Info : Audio Video Interleave
File size : 700 MiB
Duration : 1h 53mn
Overall bit rate : 859 Kbps
Writing application : VirtualDubMod 1.5.10.2 (build 2542/release)
Writing library : VirtualDub build 32706/release

Video
ID : 0
Format : MPEG-4 Visual
Format profile : Advanced Simple@L5
Format settings, BVOP : 1
Format settings, QPel : No
Format settings, GMC : No warppoints
Format settings, Matrix : Default (H.263)
Muxing mode : Packed bitstream
Codec ID : XVID
Codec ID/Hint : XviD
Duration : 1h 53mn
Bit rate : 720 Kbps
Width : 644 pixels
Height : 272 pixels
Display aspect ratio : 2.35:1
Frame rate : 29.970 fps
Color space : YUV
Chroma subsampling : 4:2:0
Bit depth : 8 bits
Scan type : Progressive
Compression mode : Lossy
Bits/(Pixel*Frame) : 0.137
Stream size : 586 MiB (84%)
Writing library : XviD 64

Audio
ID : 1
Format : MPEG Audio
Format version : Version 1
Format profile : Layer 3
Mode : Joint stereo
Mode extension : MS Stereo
Codec ID : 55
Codec ID/Hint : MP3
Duration : 1h 53mn
Bit rate mode : Constant
Bit rate : 128 Kbps
Channel(s) : 2 channels
Sampling rate : 44.1 KHz
Compression mode : Lossy
Delay relative to video : 12ms
Stream size : 104 MiB (15%)
Alignment : Split accross interleaves
Interleave, duration : 33 ms (1.00 video frame)
Interleave, preload duration : 500 ms


screenshot
Cowboys et envahisseurs (2011)

Cowboys et envahisseurs (2011)

Cowboys et envahisseurs (2011)


Welcome to the best movies collection (English, German, French language), best software, best eLearning video and many-many more: LINK
Do not forget to check my blog! Updated regularly!