Crazy, Stupid, Love. (2011)

Posted By: FenixN
Crazy, Stupid, Love. (2011)

Crazy, Stupid, Love. (2011)
CAMRip | MKV / x264, 725 kb/s | 720x304 | 01:52:06 | English: AC3, 128 kb/s (2 ch) | 698 mb
Genre: Comedy, Drama, Romance | USA

Cal (Steve Carell) and Emily (Julianne Moore) have the perfect life together living the American dream… until Emily asks for a divorce. Now Cal, Mr Husband, has to navigate the single scene with a little help from his professional bachelor friend Jacob Palmer (Ryan Gosling). Make that a lot of help…

imdb: 8/10 (3,712 votes)

Format : Matroska
File size : 698 MiB
Duration : 1h 52mn
Overall bit rate : 870 Kbps
Encoded date : UTC 2011-08-08 21:11:40
Writing library : WonderShare Matroska Muxer

Video
ID : 1
Format : AVC
Format/Info : Advanced Video Codec
Format profile : Baseline@L3.0
Format settings, CABAC : No
Format settings, ReFrames : 1 frame
Codec ID : V_MPEG4/ISO/AVC
Duration : 1h 52mn
Bit rate : 725 Kbps
Width : 720 pixels
Height : 304 pixels
Display aspect ratio : 2.35:1
Frame rate : 23.976 fps
Original frame rate : 23.000 fps
Color space : YUV
Chroma subsampling : 4:2:0
Bit depth : 8 bits
Scan type : Progressive
Bits/(Pixel*Frame) : 0.138
Stream size : 581 MiB (83%)

Audio
ID : 2
Format : AC-3
Format/Info : Audio Coding 3
Mode extension : CM (complete main)
Codec ID : A_AC3
Duration : 1h 52mn
Bit rate mode : Constant
Bit rate : 128 Kbps
Channel(s) : 2 channels
Channel positions : Front: L R
Sampling rate : 48.0 KHz
Bit depth : 16 bits
Compression mode : Lossy
Stream size : 103 MiB (15%)


screenshot
Crazy, Stupid, Love. (2011)

Crazy, Stupid, Love. (2011)

Crazy, Stupid, Love. (2011)


Welcome to the best movies collection (English, German, French language), best software, best eLearning video and many-many more: LINK
Do not forget to check my blog! Updated regularly!