Crazy, Stupid, Love. (2011)

Posted By: FenixN
Crazy, Stupid, Love. (2011)

Crazy, Stupid, Love. (2011)
CAMRip | AVI / XviD, 38 kb/s | 640x304 | 01:52:06 | English: AC3, 256 kb/s (2 ch) | 1.12 GB
Genre: Comedy, Drama, Romance | USA

Cal (Steve Carell) and Emily (Julianne Moore) have the perfect life together living the American dream… until Emily asks for a divorce. Now Cal, Mr Husband, has to navigate the single scene with a little help from his professional bachelor friend Jacob Palmer (Ryan Gosling). Make that a lot of help…

imdb: 8/10 (3,712 votes)

Format : AVI
Format/Info : Audio Video Interleave
Format profile : OpenDML
File size : 1.12 GiB
Duration : 1h 52mn
Overall bit rate : 1 436 Kbps
Writing library : MPlayer

Video
ID : 0
Format : MPEG-4 Visual
Format profile : Advanced Simple@L5
Format settings, BVOP : 1
Format settings, QPel : No
Format settings, GMC : No warppoints
Format settings, Matrix : Custom
Codec ID : XVID
Codec ID/Hint : XviD
Duration : 1h 52mn
Bit rate : 38.1 Kbps
Width : 640 pixels
Height : 304 pixels
Display aspect ratio : 2.2:1
Frame rate : 29.970 fps
Color space : YUV
Chroma subsampling : 4:2:0
Bit depth : 8 bits
Scan type : Progressive
Compression mode : Lossy
Bits/(Pixel*Frame) : 0.007
Stream size : 30.6 MiB (3%)
Writing library : XviD 1.2.1 (UTC 2008-12-04)

Audio
ID : 1
Format : AC-3
Format/Info : Audio Coding 3
Codec ID : 2000
Duration : 1h 52mn
Bit rate mode : Constant
Bit rate : 256 Kbps
Channel(s) : 2 channels
Sampling rate : 48.0 KHz
Compression mode : Lossy
Stream size : 205 MiB (18%)
Alignment : Aligned on interleaves


screenshot
Crazy, Stupid, Love. (2011)

Crazy, Stupid, Love. (2011)

Crazy, Stupid, Love. (2011)


Welcome to the best movies collection (English, German, French language), best software, best eLearning video and many-many more: LINK
Do not forget to check my blog! Updated regularly!