Creature from Black Lake (1976)

Posted By: Tavaz
SD / DVDRip IMDb
Creature from Black Lake (1976)

Creature from Black Lake (1976)
DVDRip | MKV | 628x480 | English | H264 @ 1174 kbps | AAC @ 72 kbps | 1 h 31 min | 815 MiB
Genre: Drama, Horror, Mystery

Two men exploring the Louisiana swamps run into a Bigfoot-type creature.

Creature.from.Black.Lake.1976.DVDRip.x264-CHRONiCLER.mkv (815.4 MB)



General
Unique ID : 185084192281786051685850776996913761165 (0x8B3DEB3772BA24A8BADD444906924B8D)
Complete name : ./Creature.from.Black.Lake.1976.DVDRip.x264-CHRONiCLER.mkv
Format : Matroska
Format version : Version 4 / Version 2
File size : 815 MiB
Duration : 1 h 31 min
Overall bit rate : 1 248 kb/s
Encoded date : UTC 2018-08-17 10:04:44
Writing application : mkvmerge v9.9.0 ('Pick Up') 64bit
Writing library : libebml v1.3.4 + libmatroska v1.4.5

Video
ID : 1
Format : AVC
Format/Info : Advanced Video Codec
Format profile : High@L3.1
Format settings : CABAC / 8 Ref Frames
Format settings, CABAC : Yes
Format settings, RefFrames : 8 frames
Codec ID : V_MPEG4/ISO/AVC
Duration : 1 h 31 min
Bit rate : 1 175 kb/s
Width : 628 pixels
Height : 480 pixels
Display aspect ratio : 4:3
Frame rate mode : Constant
Frame rate : 23.976 (24000/1001) FPS
Color space : YUV
Chroma subsampling : 4:2:0
Bit depth : 8 bits
Scan type : Progressive
Bits/(Pixel*Frame) : 0.163
Stream size : 767 MiB (94%)
Writing library : x264 core 157 r2932 303c484
Encoding settings : cabac=1 / ref=8 / deblock=1:-2:-2 / analyse=0x3:0x133 / me=umh / subme=9 / psy=1 / psy_rd=1.20:0.00 / mixed_ref=1 / me_range=16 / chroma_me=1 / trellis=2 / 8x8dct=1 / cqm=0 / deadzone=21,11 / fast_pskip=1 / chroma_qp_offset=-2 / threads=12 / lookahead_threads=1 / sliced_threads=0 / nr=0 / decimate=1 / interlaced=0 / bluray_compat=0 / constrained_intra=0 / bframes=3 / b_pyramid=2 / b_adapt=2 / b_bias=0 / direct=3 / weightb=1 / open_gop=0 / weightp=2 / keyint=240 / keyint_min=23 / scenecut=40 / intra_refresh=0 / rc_lookahead=60 / rc=crf / mbtree=1 / crf=19.0 / qcomp=0.60 / qpmin=0 / qpmax=69 / qpstep=4 / vbv_maxrate=17500 / vbv_bufsize=17500 / crf_max=0.0 / nal_hrd=none / filler=0 / ip_ratio=1.40 / aq=1:0.90
Language : English
Default : Yes
Forced : No

Audio
ID : 2
Format : AAC
Format/Info : Advanced Audio Codec
Format profile : LC
Codec ID : A_AAC-2
Duration : 1 h 31 min
Bit rate : 72.0 kb/s
Channel(s) : 1 channel
Channel positions : Front: C
Sampling rate : 48.0 kHz
Frame rate : 46.875 FPS (1024 SPF)
Compression mode : Lossy
Delay relative to video : 206 ms
Stream size : 46.6 MiB (6%)
Language : English
Default : Yes
Forced : No

Menu
00:00:00.000 : en:Chapter 1
00:18:51.200 : en:Chapter 2
00:34:22.300 : en:Chapter 3
00:54:59.101 : en:Chapter 4
01:05:11.201 : en:Chapter 5
01:22:14.002 : en:Chapter 6





Creature from Black Lake (1976)


Creature from Black Lake (1976)


Creature from Black Lake (1976)


Creature from Black Lake (1976)


Creature from Black Lake (1976)