Crossover An Un Orthodox Story (2007)

Posted By: ParRus
Crossover An Un Orthodox Story (2007)

Crossover An Un Orthodox Story (2007)
SAT-Rip | English | AVI | 608 x 448 | XviD ~963 Kbps | 23.976 fps
MP3 | 155 kbps | 48.0 KHz | 2 channels | 1h 26mn | 701 MB
Genre: Documentary

Urban D. has a new video out from his single "Unorthodox" from his upcoming album "Unorthodox… When Hip Hop Meets Church" releasing May 8th with Holy Hip Hop/ EMI Gospel. Click here to watch the new video. "Unorthodox… When Hip Hop Meets Church" showcases a prolific hip hop ministry emcee with over 50,000 Holy Hip Hop albums sold to date.ImageHailing from Philly, Urban D has strong roots in the urban community, while also maintaining a strong presence in the suburbs as well. Featured in USA Today, HBO and Christian publications worldwide, Urban D is notable for his powerful ministry and innovative music.With tracks on the album such as Unorthodox, Okay and Hustle, Urban D is certain to make listeners want to bob their head and stomp their feet to thrilling sounds and uplifting lyrics.Urban D is the founder and pastor of Crossover Community Church in Tampa, Florida – the world’s first and oldest hip hop church.Urban D, (aka Tommy Kyllonen), has also written “Un.orthodox” (Zondervan – May 07). His book equips church leaders and parents alike to understand and engage a culture that is as near as our schools, our communities, and even our homes.DVD features music video clips and a documentary of Urban D’s ministry and hip hop church.
General
Crossover.An.Un.Orthodox.Story.avi
Format : AVI
Format/Info : Audio Video Interleave
File size : 701 MiB
Duration : 1h 26mn
Overall bit rate mode : Variable
Overall bit rate : 1 130 Kbps
Writing application : Nandub v1.0rc2
Writing library : Nandub build 1852/release
Video #0
ID : 0
Format : MPEG-4 Visual
Format profile : Simple@L3
Format settings, BVOP : 2
Format settings, QPel : No
Format settings, GMC : No warppoints
Format settings, Matrix : Default (MPEG)
Codec ID : XVID
Codec ID/Hint : XviD
Duration : 1h 26mn
Bit rate : 963 Kbps
Width : 608 pixels
Height : 448 pixels
Display aspect ratio : 4:3
Frame rate : 23.976 fps
Color space : YUV
Chroma subsampling : 4:2:0
Bit depth : 8 bits
Scan type : Progressive
Compression mode : Lossy
Bits/(Pixel*Frame) : 0.147
Stream size : 597 MiB (85%)
Writing library : XviD 1.0.3 (UTC 2004-12-20)
Audio #1
ID : 1
Format : MPEG Audio
Format version : Version 1
Format profile : Layer 3
Mode : Joint stereo
Mode extension : MS Stereo
Codec ID : 55
Codec ID/Hint : MP3
Duration : 1h 26mn
Bit rate mode : Variable
Bit rate : 155 Kbps
Minimum bit rate : 128 Kbps
Channel(s) : 2 channels
Sampling rate : 48.0 KHz
Compression mode : Lossy
Stream size : 96.0 MiB (14%)
Alignment : Aligned on interleaves
Interleave, duration : 24 ms (0.58 video frame)
Interleave, preload duration : 114 ms
Writing library : LAME3.90.
Encoding settings : -m j -V 4 -q 2 -lowpass 18.7 –vbr-new -b 128

ScreenShots

Crossover An Un Orthodox Story (2007)

Crossover An Un Orthodox Story (2007)

Crossover An Un Orthodox Story (2007)

For more, Visit my AH-blog

no mirrors please, Follow The Rules