Tags
Language
Tags

Cry Macho (2021)

Posted By: Tavaz
Cry Macho (2021)

Cry Macho (2021)
MKV | 1920x804 | English | H264 @ 2200 kbps | AC-3 @ 384 kbps | 1 h 43 min | 1.88 GiB
Genre: Western, Drama

Mike Milo, a one-time rodeo star and washed-up horse breeder, takes a job from an ex-boss to bring the man's young son home from Mexico.

21bc9dcf6c0b42a094de636f84d8f8d2.mkv (1.9 GB)



General
Unique ID : 80914138449208329352388966378110646807 (0x3CDF7F080918A277C449D80DA9FAFA17)
Complete name : ./21bc9dcf6c0b42a094de636f84d8f8d2.mkv
Format : Matroska
Format version : Version 4 / Version 2
File size : 1.88 GiB
Duration : 1 h 43 min
Overall bit rate : 2 585 kb/s
Movie name : EVO
Encoded date : UTC 2021-12-01 03:56:14
Writing application : mkvmerge v35.0.0 ('All The Love In The World') 64-bit
Writing library : libebml v1.3.9 + libmatroska v1.5.2

Video
ID : 1
Format : AVC
Format/Info : Advanced Video Codec
Format profile : High@L4
Format settings : CABAC / 4 Ref Frames
Format settings, CABAC : Yes
Format settings, RefFrames : 4 frames
Codec ID : V_MPEG4/ISO/AVC
Duration : 1 h 43 min
Bit rate : 2 200 kb/s
Width : 1 920 pixels
Height : 804 pixels
Display aspect ratio : 2.40:1
Frame rate mode : Constant
Frame rate : 23.976 (24000/1001) FPS
Color space : YUV
Chroma subsampling : 4:2:0
Bit depth : 8 bits
Scan type : Progressive
Bits/(Pixel*Frame) : 0.059
Stream size : 1.60 GiB (85%)
Writing library : x264 core 159
Encoding settings : cabac=1 / ref=2 / deblock=1:0:0 / analyse=0x3:0x113 / me=hex / subme=6 / psy=1 / psy_rd=1.00:0.00 / mixed_ref=1 / me_range=16 / chroma_me=1 / trellis=1 / 8x8dct=1 / cqm=0 / deadzone=21,11 / fast_pskip=1 / chroma_qp_offset=-2 / threads=24 / lookahead_threads=4 / sliced_threads=0 / nr=0 / decimate=1 / interlaced=0 / bluray_compat=0 / constrained_intra=0 / bframes=3 / b_pyramid=2 / b_adapt=1 / b_bias=0 / direct=1 / weightb=1 / open_gop=0 / weightp=1 / keyint=250 / keyint_min=23 / scenecut=40 / intra_refresh=0 / rc_lookahead=30 / rc=2pass / mbtree=1 / bitrate=2200 / ratetol=1.0 / qcomp=0.60 / qpmin=0 / qpmax=69 / qpstep=4 / cplxblur=20.0 / qblur=0.5 / ip_ratio=1.40 / aq=1:1.00
Default : Yes
Forced : No

Audio
ID : 2
Format : AC-3
Format/Info : Audio Coding 3
Format settings, Endianness : Big
Codec ID : A_AC3
Duration : 1 h 43 min
Bit rate mode : Constant
Bit rate : 384 kb/s
Channel(s) : 6 channels
Channel positions : Front: L C R, Side: L R, LFE
Sampling rate : 48.0 kHz
Frame rate : 31.250 FPS (1536 SPF)
Bit depth : 16 bits
Compression mode : Lossy
Delay relative to video : -5 ms
Stream size : 285 MiB (15%)
Language : English
Service kind : Complete Main
Default : Yes
Forced : No

Menu
00:00:00.000 : en:Chapter 1
00:08:56.583 : en:Chapter 2
00:17:18.125 : en:Chapter 3
00:26:02.316 : en:Chapter 4
00:35:10.864 : en:Chapter 5
00:44:05.857 : en:Chapter 6
00:52:52.257 : en:Chapter 7
01:01:32.777 : en:Chapter 8
01:11:27.997 : en:Chapter 9
01:21:11.580 : en:Chapter 10
01:31:12.222 : en:Chapter 11
01:37:37.648 : en:Chapter 12





Cry Macho (2021)


Cry Macho (2021)


Cry Macho (2021)


Cry Macho (2021)


Cry Macho (2021)