DC Bone Detectives - Warlord of Bamburgh Castle (2007)

Posted By: Polik88
DC Bone Detectives - Warlord of Bamburgh Castle (2007)

DC Bone Detectives - Warlord of Bamburgh Castle (2007)
HDTV | English | MKV (H264) 29.970 fps 4000 Kbps | 1280x720 | AC3 384 Kbps 48.0 khz | 43mn 35s | 1.34 GB
Genre: Documentary

Scotty travels to the North Sea coast of England to ancient Bamburgh Castle, where the body of a young man with a crushed skull has been unearthed. The body dates to the 7th century A.D., a violent time when the Christian king, Oswald, fought pagans for control of the country. Was this young man a monk, killed in the countryside while spreading Christianity? Or was he an aristocrat and warrior who died defending the castle? And if he was a warrior, was he pagan or Christian?
General
Complete name : Discovery.Bone.Detectives.Warlord.of.Bamburgh.Castle.mkv
Format : Matroska
Format version : Version 1
File size : 1.34 GiB
Duration : 43mn 35s
Overall bit rate : 4 389 Kbps
Encoded date : UTC 2008-12-20 01:38:18
Writing application : mkvmerge v2.3.0 ('Freak U') built on Sep 8 2008 18:32:16
Writing library : libebml v0.7.7 + libmatroska v0.8.1

Video
ID : 1
Format : AVC
Format/Info : Advanced Video Codec
Format profile : High@L4.1
Format settings, CABAC : Yes
Format settings, ReFrames : 8 frames
Codec ID : V_MPEG4/ISO/AVC
Duration : 43mn 35s
Bit rate : 4 000 Kbps
Width : 1 280 pixels
Height : 720 pixels
Display aspect ratio : 16:9
Frame rate : 29.970 fps
Color space : YUV
Chroma subsampling : 4:2:0
Bit depth : 8 bits
Scan type : Progressive
Bits/(Pixel*Frame) : 0.145
Stream size : 1.19 GiB (89%)
Writing library : x264 core 65 r1040M 1591275
Encoding settings : cabac=1 / ref=8 / deblock=1:-3:-3 / analyse=0x3:0x113 / me=umh / subme=7 / psy_rd=1.0:0.0 / mixed_ref=1 / me_range=30 / chroma_me=1 / trellis=1 / 8x8dct=1 / cqm=2 / deadzone=21,11 / chroma_qp_offset=-2 / threads=6 / nr=0 / decimate=1 / mbaff=0 / bframes=5 / b_pyramid=1 / b_adapt=2 / b_bias=0 / direct=1 / wpredb=1 / keyint=250 / keyint_min=25 / scenecut=40(pre) / rc=2pass / bitrate=4000 / ratetol=7.0 / qcomp=0.60 / qpmin=10 / qpmax=51 / qpstep=4 / cplxblur=20.0 / qblur=0.5 / ip_ratio=1.40 / pb_ratio=1.30 / aq=1:1.05
Language : English
Default : Yes
Forced : No

Audio
ID : 2
Format : AC-3
Format/Info : Audio Coding 3
Mode extension : CM (complete main)
Format settings, Endianness : Big
Codec ID : A_AC3
Duration : 43mn 35s
Bit rate mode : Constant
Bit rate : 384 Kbps
Channel(s) : 2 channels
Channel positions : Front: L R
Sampling rate : 48.0 KHz
Bit depth : 16 bits
Compression mode : Lossy
Stream size : 120 MiB (9%)
Default : Yes
Forced : No

Screenshots

DC Bone Detectives - Warlord of Bamburgh Castle (2007)

DC Bone Detectives - Warlord of Bamburgh Castle (2007)

DC Bone Detectives - Warlord of Bamburgh Castle (2007)

no mirrors please, Follow The Rules
Visit Polik88 Blog Here
no password