DC Really Big Things - Ski Dubai (2007)

Posted By: Polik88
DC Really Big Things - Ski Dubai (2007)

DC Really Big Things - Ski Dubai (2007)
HDTV | English | MKV (H264) 29.970 fps 4000 Kbps | 1280x720 | AC3 384 Kbps 48.0 khz | 43mn 34s | 1.34 GB
Genre: Documentary

A trip to the Middle East to see the world's tallest building and biggest indoor skiing venue. Also: building and installing a 50-foot fossil banner.
General
Complete name : Discovery.Really.Big.Things.Season.2.Ski.Dubai.mkv
Format : Matroska
Format version : Version 1
File size : 1.34 GiB
Duration : 43mn 34s
Overall bit rate : 4 388 Kbps
Encoded date : UTC 2009-09-12 11:34:30
Writing application : mkvmerge v2.4.1 ('Use Me') built on Dec 5 2008 18:30:05
Writing library : libebml v0.7.7 + libmatroska v0.8.1

Video
ID : 1
Format : AVC
Format/Info : Advanced Video Codec
Format profile : High@L4.1
Format settings, CABAC : Yes
Format settings, ReFrames : 8 frames
Codec ID : V_MPEG4/ISO/AVC
Duration : 43mn 34s
Bit rate : 4 000 Kbps
Width : 1 280 pixels
Height : 720 pixels
Display aspect ratio : 16:9
Frame rate : 29.970 fps
Color space : YUV
Chroma subsampling : 4:2:0
Bit depth : 8 bits
Scan type : Progressive
Bits/(Pixel*Frame) : 0.145
Stream size : 1.19 GiB (89%)
Writing library : x264 core 75 r1247 b3efbe5
Encoding settings : cabac=1 / ref=8 / deblock=1:-3:-3 / analyse=0x3:0x113 / me=umh / subme=7 / psy=1 / psy_rd=1.0:0.0 / mixed_ref=1 / me_range=30 / chroma_me=1 / trellis=1 / 8x8dct=1 / cqm=2 / deadzone=21,11 / chroma_qp_offset=-2 / threads=6 / nr=0 / decimate=1 / mbaff=0 / bframes=5 / b_pyramid=0 / b_adapt=2 / b_bias=0 / direct=1 / wpredb=1 / keyint=250 / keyint_min=25 / scenecut=40 / rc_lookahead=40 / rc=2pass / mbtree=1 / bitrate=4000 / ratetol=10.0 / qcomp=0.60 / qpmin=10 / qpmax=51 / qpstep=4 / cplxblur=20.0 / qblur=0.5 / ip_ratio=1.40 / aq=1:1.05
Language : English
Default : Yes
Forced : No

Audio
ID : 2
Format : AC-3
Format/Info : Audio Coding 3
Mode extension : CM (complete main)
Format settings, Endianness : Big
Codec ID : A_AC3
Duration : 43mn 34s
Bit rate mode : Constant
Bit rate : 384 Kbps
Channel(s) : 6 channels
Channel positions : Front: L C R, Side: L R, LFE
Sampling rate : 48.0 KHz
Bit depth : 16 bits
Compression mode : Lossy
Stream size : 120 MiB (9%)
Default : Yes
Forced : No

Screenshots

DC Really Big Things - Ski Dubai (2007)

DC Really Big Things - Ski Dubai (2007)

DC Really Big Things - Ski Dubai (2007)

no mirrors please, Follow The Rules
Visit Polik88 Blog Here
no password