DCs Legends of Tomorrow S02E01 (2016)

Posted By: Without
DCs Legends of Tomorrow S02E01 (2016)

DCs Legends of Tomorrow S02E01 (2016)
HDTV 720p | MKV | 1280x720 | AVC@3284 Kbps | English AC3@384 Kbps
6 channels | 42mn 26s | 1.10 GB
Genre: Action, Adventure, Drama, Sci-Fi

Focuses on time-traveling rogue Rip Hunter, who has to recruit a rag-tag team of heroes and villains to help prevent an apocalypse that could impact not only Earth, but all of time.



General
Unique ID : 213253770938668952246548837783666115276 (0xA06F2EAC8D333C48B5D62C85D7D342CC)
Complete name : J:\DCs.Legends.of.Tomorrow.S02E01.720p.HDTV.X264-DIMENSION\DCs.Legends.of.Tomorrow.S02E01.720p.HDTV.X264-DIMENSION.mkv
Format : Matroska
Format version : Version 2
File size : 1.11 GiB
Duration : 42mn 26s
Overall bit rate : 3 742 Kbps
Encoded date : UTC 2016-10-13 16:05:41
Writing application : mkvmerge v3.1.0 ('Happy up here') built on Jan 19 2010 12:09:24
Writing library : libebml v0.7.9 + libmatroska v0.8.1

Video
ID : 1
Format : AVC
Format/Info : Advanced Video Codec
Format profile : High@L4.1
Format settings, CABAC : Yes
Format settings, ReFrames : 8 frames
Codec ID : V_MPEG4/ISO/AVC
Duration : 42mn 26s
Bit rate : 3 284 Kbps
Width : 1 280 pixels
Height : 720 pixels
Display aspect ratio : 16:9
Frame rate mode : Constant
Frame rate : 23.976 (24000/1001) fps
Color space : YUV
Chroma subsampling : 4:2:0
Bit depth : 8 bits
Scan type : Progressive
Bits/(Pixel*Frame) : 0.149
Stream size : 997 MiB (88%)
Writing library : x264 core 148 r2721 72d53ab
Encoding settings : cabac=1 / ref=8 / deblock=1:-2:-2 / analyse=0x3:0x113 / me=umh / subme=9 / psy=1 / psy_rd=1.00:0.00 / mixed_ref=1 / me_range=24 / chroma_me=1 / trellis=1 / 8x8dct=1 / cqm=0 / deadzone=21,11 / fast_pskip=0 / chroma_qp_offset=-2 / threads=18 / lookahead_threads=1 / sliced_threads=0 / nr=0 / decimate=1 / interlaced=0 / bluray_compat=0 / constrained_intra=0 / bframes=5 / b_pyramid=2 / b_adapt=1 / b_bias=0 / direct=3 / weightb=1 / open_gop=0 / weightp=2 / keyint=250 / keyint_min=23 / scenecut=40 / intra_refresh=0 / rc_lookahead=50 / rc=crf / mbtree=1 / crf=18.0 / qcomp=0.60 / qpmin=0 / qpmax=69 / qpstep=4 / ip_ratio=1.40 / aq=1:1.00
Language : English
Default : No
Forced : No

Audio
ID : 2
Format : AC-3
Format/Info : Audio Coding 3
Mode extension : CM (complete main)
Format settings, Endianness : Big
Codec ID : A_AC3
Duration : 42mn 26s
Bit rate mode : Constant
Bit rate : 384 Kbps
Channel(s) : 6 channels
Channel positions : Front: L C R, Side: L R, LFE
Sampling rate : 48.0 KHz
Frame rate : 31.250 fps (1536 spf)
Compression mode : Lossy
Delay relative to video : 16ms
Stream size : 117 MiB (10%)
Default : Yes
Forced : No


HDTV 720p Screenshots

DCs Legends of Tomorrow S02E01 (2016)

DCs Legends of Tomorrow S02E01 (2016)

DCs Legends of Tomorrow S02E01 (2016)


Come Visit My Blog (•‿•)