Dragon Tales - Let's Start A Band! (2003) **[RE-UP]**

Posted By: TestTickles
Dragon Tales - Let's Start A Band! (2003) **[RE-UP]**

Dragon Tales - Let's Start A Band! (2003)
DVD rip | AVI: Simple@L1 (720 x 480, 2499 Kbps) | Audio: MP3 (320 Kbps) | 41 min | English | 818 mb
Genre: children's, cartoon

Dragon Tales - Let's Start A Band! is a children's television show released on DVD in 2003. It comes from the show Dragon Tales, with this edition hosted by Alishia Taiping (as "Nina") and featuring spercial guest, singer Erykah Badu along with her son Seven (Andre 3000 of Outkast is his father). A wonderful mixture of fun and singing.

Dragon Tales - Let's Start A Band! (2003) **[RE-UP]**


General
Complete name : E:\FLAC\AAA 2017\Vids\Dragon Tales -

Let's Start A Band! (2003)\Dragon Tales - Let's Start a Band!.avi
Format : AVI
Format/Info : Audio Video Interleave
File size : 825 MiB
Duration : 40mn 43s
Overall bit rate : 2 833 Kbps
Writing application : Lavf51.12.1

Video
ID : 0
Format : MPEG-4 Visual
Format profile : Simple@L1
Format settings, BVOP : No
Format settings, QPel : No
Format settings, GMC : No warppoints
Format settings, Matrix : Default (H.263)
Codec ID : DX50
Codec ID/Hint : DivX 5
Duration : 40mn 43s
Bit rate : 2 499 Kbps
Width : 720 pixels
Height : 480 pixels
Display aspect ratio : 3:2
Frame rate : 29.970 fps
Standard : NTSC
Color space : YUV
Chroma subsampling : 4:2:0
Bit depth : 8 bits
Scan type : Progressive
Compression mode : Lossy
Bits/(Pixel*Frame) : 0.241
Stream size : 728 MiB (88%)
Writing library : Lavc51.40.4

Audio
ID : 1
Format : MPEG Audio
Format version : Version 1
Format profile : Layer 3
Mode : Joint stereo
Mode extension : MS Stereo
Codec ID : 55
Codec ID/Hint : MP3
Duration : 40mn 43s
Bit rate mode : Constant
Bit rate : 320 Kbps
Channel(s) : 2 channels
Sampling rate : 48.0 KHz
Compression mode : Lossy
Stream size : 93.2 MiB (11%)
Alignment : Aligned on interleaves
Interleave, duration : 24 ms (0.72 video frame)
Writing library : LAME3.97


dragontales.wikia.com