Tags
Language
Tags

Love in the Afternoon / L'amour l'après-midi (1972) [Criterion Collection]

Posted By: RSU75
1080p (FullHD) / BDRip IMDb
Love in the Afternoon / L'amour l'après-midi (1972) [Criterion Collection]

Six Moral Tales. Love in the Afternoon / L'amour l'après-midi (1972) [Criterion Collection, Spine #348]
BDRip 1080p | MKV | AVC, 1480x1080, ~ 3.8 Mbps | 1hr 37mn | 2.92 GB | French (Français): AC3, 1 ch, 448 kbps
BDRip 720p | MKV | AVC, 988x720, ~ 2.6 Mbps | 1hr 37mn | 1.96 GB | French (Français): AC3, 1 ch, 256 kbps
Subtitles: English
Genre: Comedy, Drama, Romance



Director: Éric Rohmer
Writers: Éric Rohmer
Stars: Bernard Verley, Zouzou, Françoise Verley

Though happily married to the adoring Hélène and expecting a second child with her, the thoroughly bourgeois executive Frédéric cannot banish from his mind the attractive Paris women he sees every day. His flirtations and fantasies remain harmless until the appearance at his office of Chloé, an audacious, unencumbered old flame played by the mesmerizing Zouzou. Love in the Afternoon, the luminous final chapter in Eric Rohmer’s Six Moral Tales, is a tender, sobering, and wholly adult affair that leads to perhaps the most overwhelmingly emotional moment in the entire series.

Special Features:
- None




General
Unique ID : 221223831400747310971674762248062037784 (0xA66E28FE52F5E1099769E83310A0EF18)
Complete name : F:\LoveInTheAfternoon.1972.Cr.1p\LoveInTheAfternoon.1972.Cr.1p.mkv
Format : Matroska
Format version : Version 4
File size : 2.92 GiB
Duration : 1 h 37 min
Overall bit rate : 4 268 kb/s
Movie name : Release RSU75
Encoded date : UTC 2020-06-04 03:12:06
Writing application : mkvmerge v6.6.0 ('The Edge Of The In Between') built on Dec 1 2013 17:55:00
Writing library : libebml v1.3.0 + libmatroska v1.4.1

Video
ID : 1
Format : AVC
Format/Info : Advanced Video Codec
Format profile : High@L4.1
Format settings : CABAC / 4 Ref Frames
Format settings, CABAC : Yes
Format settings, Reference fra : 4 frames
Codec ID : V_MPEG4/ISO/AVC
Duration : 1 h 37 min
Bit rate : 3 800 kb/s
Width : 1 480 pixels
Height : 1 080 pixels
Display aspect ratio : 1.370
Frame rate mode : Constant
Frame rate : 23.976 (23976/1000) FPS
Color space : YUV
Chroma subsampling : 4:2:0
Bit depth : 8 bits
Scan type : Progressive
Bits/(Pixel*Frame) : 0.099
Stream size : 2.55 GiB (88%)
Writing library : x264 core 148 r2643 5c65704
Encoding settings : cabac=1 / ref=4 / deblock=1:0:0 / analyse=0x3:0x113 / me=umh / subme=8 / psy=1 / psy_rd=1.00:0.00 / mixed_ref=1 / me_range=24 / chroma_me=1 / trellis=1 / 8x8dct=1 / cqm=0 / deadzone=21,11 / fast_pskip=1 / chroma_qp_offset=-2 / threads=3 / lookahead_threads=1 / sliced_threads=0 / nr=0 / decimate=1 / interlaced=0 / bluray_compat=0 / constrained_intra=0 / bframes=3 / b_pyramid=0 / b_adapt=2 / b_bias=0 / direct=3 / weightb=1 / open_gop=0 / weightp=2 / keyint=250 / keyint_min=25 / scenecut=40 / intra_refresh=0 / rc_lookahead=40 / rc=abr / mbtree=1 / bitrate=3800 / ratetol=1.0 / qcomp=0.60 / qpmin=10 / qpmax=51 / qpstep=4 / ip_ratio=1.41 / aq=1:1.00
Language : English
Default : Yes
Forced : No
Duration_Source : General_Duration

Audio
ID : 2
Format : AC-3
Format/Info : Audio Coding 3
Commercial name : Dolby Digital
Codec ID : A_AC3
Duration : 1 h 37 min
Bit rate mode : Constant
Bit rate : 448 kb/s
Channel(s) : 1 channel
Channel layout : C
Sampling rate : 44.1 kHz
Frame rate : 28.711 FPS (1536 SPF)
Compression mode : Lossy
Stream size : 313 MiB (10%)
Title : Mono
Language : French
Service kind : Complete Main
Default : Yes
Forced : No
Duration_Source : General_Duration

Text
ID : 3
Format : PGS
Muxing mode : zlib
Codec ID : S_HDMV/PGS
Codec ID/Info : Picture based subtitle format used on BDs/HD-DVDs
Language : English
Default : Yes
Forced : No

Menu
00:00:00.000 : en:Chapter 01
00:01:32.175 : en:Chapter 02
00:05:22.280 : en:Chapter 03
00:09:17.598 : en:Chapter 04
00:13:49.453 : en:Chapter 05
00:17:54.239 : en:Chapter 06
00:23:48.593 : en:Chapter 07
00:30:11.184 : en:Chapter 08
00:33:45.148 : en:Chapter 09
00:38:34.895 : en:Chapter 10
00:49:20.082 : en:Chapter 11
01:04:03.840 : en:Chapter 12
01:12:01.108 : en:Chapter 13
01:21:28.842 : en:Chapter 14
01:28:15.873 : en:Chapter 15





General
Unique ID : 209641606503631888392530270367989675077 (0x9DB78137A7B3040FAE1A858CD210B445)
Complete name : F:\LoveInTheAfternoon.1972.Cr.7p\LoveInTheAfternoon.1972.Cr.7p.mkv
Format : Matroska
Format version : Version 4
File size : 1.96 GiB
Duration : 1 h 37 min
Overall bit rate : 2 875 kb/s
Movie name : Release RSU75
Encoded date : UTC 2020-06-03 14:08:45
Writing application : mkvmerge v6.6.0 ('The Edge Of The In Between') built on Dec 1 2013 17:55:00
Writing library : libebml v1.3.0 + libmatroska v1.4.1

Video
ID : 1
Format : AVC
Format/Info : Advanced Video Codec
Format profile : High@L4.1
Format settings : CABAC / 4 Ref Frames
Format settings, CABAC : Yes
Format settings, Reference fra : 4 frames
Codec ID : V_MPEG4/ISO/AVC
Duration : 1 h 37 min
Bit rate : 2 600 kb/s
Width : 988 pixels
Height : 720 pixels
Display aspect ratio : 1.371
Original display aspect ratio : 1.370
Frame rate mode : Constant
Frame rate : 23.976 (23976/1000) FPS
Color space : YUV
Chroma subsampling : 4:2:0
Bit depth : 8 bits
Scan type : Progressive
Bits/(Pixel*Frame) : 0.152
Stream size : 1.75 GiB (89%)
Writing library : x264 core 148 r2643 5c65704
Encoding settings : cabac=1 / ref=4 / deblock=1:0:0 / analyse=0x3:0x113 / me=umh / subme=8 / psy=1 / psy_rd=1.00:0.00 / mixed_ref=1 / me_range=24 / chroma_me=1 / trellis=1 / 8x8dct=1 / cqm=0 / deadzone=21,11 / fast_pskip=1 / chroma_qp_offset=-2 / threads=3 / lookahead_threads=1 / sliced_threads=0 / nr=0 / decimate=1 / interlaced=0 / bluray_compat=0 / constrained_intra=0 / bframes=3 / b_pyramid=0 / b_adapt=2 / b_bias=0 / direct=3 / weightb=1 / open_gop=0 / weightp=2 / keyint=250 / keyint_min=25 / scenecut=40 / intra_refresh=0 / rc_lookahead=40 / rc=abr / mbtree=1 / bitrate=2600 / ratetol=1.0 / qcomp=0.60 / qpmin=10 / qpmax=51 / qpstep=4 / ip_ratio=1.41 / aq=1:1.00
Language : English
Default : Yes
Forced : No
Duration_Source : General_Duration

Audio
ID : 2
Format : AC-3
Format/Info : Audio Coding 3
Commercial name : Dolby Digital
Codec ID : A_AC3
Duration : 1 h 37 min
Bit rate mode : Constant
Bit rate : 256 kb/s
Channel(s) : 1 channel
Channel layout : C
Sampling rate : 44.1 kHz
Frame rate : 28.711 FPS (1536 SPF)
Compression mode : Lossy
Stream size : 179 MiB (9%)
Title : Mono
Language : French
Service kind : Complete Main
Default : Yes
Forced : No
Duration_Source : General_Duration

Text
ID : 3
Format : PGS
Muxing mode : zlib
Codec ID : S_HDMV/PGS
Codec ID/Info : Picture based subtitle format used on BDs/HD-DVDs
Language : English
Default : Yes
Forced : No

Menu
00:00:00.000 : en:Chapter 01
00:01:32.175 : en:Chapter 02
00:05:22.280 : en:Chapter 03
00:09:17.598 : en:Chapter 04
00:13:49.453 : en:Chapter 05
00:17:54.239 : en:Chapter 06
00:23:48.593 : en:Chapter 07
00:30:11.184 : en:Chapter 08
00:33:45.148 : en:Chapter 09
00:38:34.895 : en:Chapter 10
00:49:20.082 : en:Chapter 11
01:04:03.840 : en:Chapter 12
01:12:01.108 : en:Chapter 13
01:21:28.842 : en:Chapter 14
01:28:15.873 : en:Chapter 15




Screenshots 1080p (click to enlarge to original size):

Love in the Afternoon / L'amour l'après-midi (1972) [Criterion Collection]

Love in the Afternoon / L'amour l'après-midi (1972) [Criterion Collection]

Love in the Afternoon / L'amour l'après-midi (1972) [Criterion Collection]



Screenshots 720p (click to enlarge to original size):

Love in the Afternoon / L'amour l'après-midi (1972) [Criterion Collection]






If you like this release please visit my blog
In it you will find ALL the latest Criterion Collection releases