Das ewige Leben (2015)

Posted By: JohnSmith
Das ewige Leben (2015)

Das ewige Leben (2015)
BRRip | MKV / AVC@1315 kb/s | 720x304 | 2h 2mn | 1.46 GB | German: AC3, 384 kb/s (6 ch) | Subtiltes: English
BDRip 720p | MKV / AVC@1929 kb/s | 1280x536 | 2h 2mn | 2.08 GB | German: AC3, 448 kb/s (6 ch)
BDRip 1080p | MKV / AVC@5476 kb/s | 1920x808 | 2h 2mn | 5.18 GB | German: AC3, 448 kb/s (6 ch) | Subtiltes: English
Genre: Comedy | Crime | Thriller

Simon Brenner (Josef Hader) steht in seinem Leben vor einem riesigen Abgrund und braucht einen Ort, an dem er zur Ruhe kommen kann. Ihm fällt sein Elternhaus ein. Das befindet sich in Graz, der Stätte seiner Jugend, doch eigentlich hatte er dieser Zeit aus triftigen Gründen längst den Rücken gekehrt. Aber wo lässt es sich für einen Privatdetektiv besser eine ruhige Kugel schieben als in der Heimatstadt? Kaum angekommen, folgen bereits eine Reihe von Begegnungen mit vielen alten Gesichtern und das Geheimnis um eine Jugendsünde bahnt sich den Weg ans Licht. Nach einem Besuch von seinem alten „Jugendfreund“ Aschenbrenner (Tobias Moretti) sitzt nämlich plötzlich eine Kugel in Brenners Kopf, die er angeblich selbst dort hineinbefördert hat. Doch Brenner ist sich sicher, dass hier einiges nicht mit rechten Dingen zugeht. Dann wird auch noch einem weiteren alten „Jugendfreund“ Brenners, Köck (Roland Düringer), ein Besuch abgestattet, der für ihn tödliche Konsequenzen haben soll…




General
Unique ID : 170896535273112284838065724293626642162 (0x809179B83C231ED6A56238941992BEF2)
Complete name : C:\Users\Administrator\Desktop\Das.ewige.Leben.2015.German.BRRip.mkv
Format : Matroska
Format version : Version 4 / Version 2
File size : 1.46 GiB
Duration : 2h 2mn
Overall bit rate : 1 703 Kbps
Encoded date : UTC 2015-09-01 10:43:51
Writing application : mkvmerge v6.9.1 ('Blue Panther') 64bit built on Apr 18 2014 18:23:38
Writing library : libebml v1.3.0 + libmatroska v1.4.1

Video
ID : 1
Format : AVC
Format/Info : Advanced Video Codec
Format profile : Main@L3.1
Format settings, CABAC : Yes
Format settings, ReFrames : 4 frames
Codec ID : V_MPEG4/ISO/AVC
Duration : 2h 2mn
Bit rate : 1 315 Kbps
Width : 720 pixels
Height : 304 pixels
Display aspect ratio : 2.35:1
Frame rate mode : Constant
Frame rate : 24.000 fps
Color space : YUV
Chroma subsampling : 4:2:0
Bit depth : 8 bits
Scan type : Progressive
Bits/(Pixel*Frame) : 0.250
Stream size : 1.10 GiB (75%)
Writing library : x264 core 144 r2525 40bb568
Encoding settings : cabac=1 / ref=2 / deblock=1:0:0 / analyse=0x1:0x111 / me=hex / subme=4 / psy=1 / psy_rd=1.00:0.00 / mixed_ref=0 / me_range=16 / chroma_me=1 / trellis=1 / 8x8dct=0 / cqm=0 / deadzone=21,11 / fast_pskip=1 / chroma_qp_offset=0 / threads=12 / lookahead_threads=2 / sliced_threads=0 / nr=0 / decimate=1 / interlaced=0 / bluray_compat=0 / constrained_intra=0 / bframes=3 / b_pyramid=2 / b_adapt=1 / b_bias=0 / direct=1 / weightb=1 / open_gop=0 / weightp=1 / keyint=240 / keyint_min=24 / scenecut=40 / intra_refresh=0 / rc_lookahead=20 / rc=2pass / mbtree=1 / bitrate=1315 / ratetol=1.0 / qcomp=0.60 / qpmin=0 / qpmax=69 / qpstep=4 / cplxblur=20.0 / qblur=0.5 / vbv_maxrate=14000 / vbv_bufsize=14000 / nal_hrd=none / filler=0 / ip_ratio=1.40 / aq=1:1.00
Default : Yes
Forced : No
Color range : Limited
Color primaries : BT.709
Transfer characteristics : BT.709
Matrix coefficients : BT.709

Audio
ID : 2
Format : AC-3
Format/Info : Audio Coding 3
Mode extension : CM (complete main)
Format settings, Endianness : Big
Codec ID : A_AC3
Duration : 2h 2mn
Bit rate mode : Constant
Bit rate : 384 Kbps
Channel(s) : 6 channels
Channel positions : Front: L C R, Side: L R, LFE
Sampling rate : 48.0 KHz
Compression mode : Lossy
Delay relative to video : -83ms
Stream size : 337 MiB (23%)
Language : German
Default : Yes
Forced : No

Text
ID : 3
Format : VobSub
Muxing mode : zlib
Codec ID : S_VOBSUB
Codec ID/Info : Picture based subtitle format used on DVDs
Language : English
Default : Yes
Forced : No



General
Unique ID : 201944095635428999083070758041278652012 (0x97ED04A1645D5CAC838C5431B7369E6C)
Complete name : C:\Users\Administrator\Desktop\Das.ewige.Leben.2015.German.720p.BluRay.mkv
Format : Matroska
Format version : Version 4 / Version 2
File size : 2.08 GiB
Duration : 2h 2mn
Overall bit rate : 2 426 Kbps
Encoded date : UTC 2015-08-31 15:14:17
Writing application : mkvmerge v7.9.0 ('Birds') 64bit
Writing library : libebml v1.3.1 + libmatroska v1.4.2
DURATION : 02:02:48.160000000
NUMBER_OF_FRAMES : 230255
NUMBER_OF_BYTES : 412616960
_STATISTICS_WRITING_APP : mkvmerge v7.9.0 ('Birds') 64bit
_STATISTICS_WRITING_DATE_UT : 2015-08-31 15:14:17
_STATISTICS_TAGS : BPS DURATION NUMBER_OF_FRAMES NUMBER_OF_BYTES

Video
ID : 1
Format : AVC
Format/Info : Advanced Video Codec
Format profile : High@L4.1
Format settings, CABAC : Yes
Format settings, ReFrames : 5 frames
Codec ID : V_MPEG4/ISO/AVC
Duration : 2h 2mn
Bit rate : 1 929 Kbps
Width : 1 280 pixels
Height : 536 pixels
Display aspect ratio : 2.40:1
Frame rate mode : Constant
Frame rate : 24.000 fps
Color space : YUV
Chroma subsampling : 4:2:0
Bit depth : 8 bits
Scan type : Progressive
Bits/(Pixel*Frame) : 0.117
Stream size : 1.66 GiB (80%)
Title : encounters-daewle_720p
Writing library : x264 core 146 r2538 121396c
Encoding settings : cabac=1 / ref=5 / deblock=1:-1:-1 / analyse=0x3:0x133 / me=umh / subme=7 / psy=1 / psy_rd=1.00:0.15 / mixed_ref=1 / me_range=16 / chroma_me=1 / trellis=1 / 8x8dct=1 / cqm=0 / deadzone=21,11 / fast_pskip=0 / chroma_qp_offset=-3 / threads=18 / lookahead_threads=3 / sliced_threads=0 / nr=0 / decimate=1 / interlaced=0 / bluray_compat=0 / constrained_intra=0 / bframes=3 / b_pyramid=2 / b_adapt=1 / b_bias=0 / direct=1 / weightb=1 / open_gop=0 / weightp=2 / keyint=250 / keyint_min=24 / scenecut=40 / intra_refresh=0 / rc_lookahead=40 / rc=crf / mbtree=1 / crf=20.0 / qcomp=0.60 / qpmin=0 / qpmax=69 / qpstep=4 / ip_ratio=1.40 / aq=1:1.00
Default : Yes
Forced : No

Audio
ID : 2
Format : AC-3
Format/Info : Audio Coding 3
Mode extension : CM (complete main)
Format settings, Endianness : Big
Codec ID : A_AC3
Duration : 2h 2mn
Bit rate mode : Constant
Bit rate : 448 Kbps
Channel(s) : 6 channels
Channel positions : Front: L C R, Side: L R, LFE
Sampling rate : 48.0 KHz
Compression mode : Lossy
Stream size : 394 MiB (18%)
Title : AC3-448 Kbps
Language : German
Default : Yes
Forced : No

Menu
00:00:00.000 : en:00:00:00.000
00:18:11.958 : en:00:18:11.958
00:30:19.292 : en:00:30:19.292
00:47:58.000 : en:00:47:58.000
01:02:57.583 : en:01:02:57.583
01:18:37.833 : en:01:18:37.833
01:32:40.125 : en:01:32:40.125
01:44:21.875 : en:01:44:21.875



General
Unique ID : 227848091547327281618701325934510027158 (0xAB69F23C03B482109C5A5C5D52453196)
Complete name : C:\Users\Administrator\Desktop\Das.ewige.Leben.2015.German.1080p.BluRay.mkv
Format : Matroska
Format version : Version 4 / Version 2
File size : 5.18 GiB
Duration : 2h 2mn
Overall bit rate : 6 044 Kbps
Encoded date : UTC 2015-09-01 10:41:18
Writing application : mkvmerge v6.9.1 ('Blue Panther') 64bit built on Apr 18 2014 18:23:38
Writing library : libebml v1.3.0 + libmatroska v1.4.1

Video
ID : 1
Format : AVC
Format/Info : Advanced Video Codec
Format profile : High@L4.1
Format settings, CABAC : Yes
Format settings, ReFrames : 5 frames
Codec ID : V_MPEG4/ISO/AVC
Duration : 2h 2mn
Bit rate : 5 476 Kbps
Width : 1 920 pixels
Height : 808 pixels
Display aspect ratio : 2.40:1
Frame rate mode : Constant
Frame rate : 24.000 fps
Color space : YUV
Chroma subsampling : 4:2:0
Bit depth : 8 bits
Scan type : Progressive
Bits/(Pixel*Frame) : 0.147
Stream size : 4.70 GiB (91%)
Title : encounters-daewle_1080p
Writing library : x264 core 146 r2538 121396c
Encoding settings : cabac=1 / ref=5 / deblock=1:-1:-1 / analyse=0x3:0x133 / me=umh / subme=7 / psy=1 / psy_rd=1.00:0.15 / mixed_ref=1 / me_range=16 / chroma_me=1 / trellis=1 / 8x8dct=1 / cqm=0 / deadzone=21,11 / fast_pskip=0 / chroma_qp_offset=-3 / threads=18 / lookahead_threads=3 / sliced_threads=0 / nr=0 / decimate=1 / interlaced=0 / bluray_compat=0 / constrained_intra=0 / bframes=3 / b_pyramid=2 / b_adapt=1 / b_bias=0 / direct=1 / weightb=1 / open_gop=0 / weightp=2 / keyint=250 / keyint_min=24 / scenecut=40 / intra_refresh=0 / rc_lookahead=40 / rc=crf / mbtree=1 / crf=20.0 / qcomp=0.60 / qpmin=0 / qpmax=69 / qpstep=4 / ip_ratio=1.40 / aq=1:1.00
Default : Yes
Forced : No

Audio
ID : 2
Format : AC-3
Format/Info : Audio Coding 3
Mode extension : CM (complete main)
Format settings, Endianness : Big
Codec ID : A_AC3
Duration : 2h 2mn
Bit rate mode : Constant
Bit rate : 448 Kbps
Channel(s) : 6 channels
Channel positions : Front: L C R, Side: L R, LFE
Sampling rate : 48.0 KHz
Compression mode : Lossy
Stream size : 394 MiB (7%)
Language : German
Default : Yes
Forced : No

Text
ID : 3
Format : VobSub
Muxing mode : zlib
Codec ID : S_VOBSUB
Codec ID/Info : Picture based subtitle format used on DVDs
Language : English
Default : Yes
Forced : No


Screenshots BRRip

Das ewige Leben (2015)

Das ewige Leben (2015)

Das ewige Leben (2015)


Screenshots BDRip 720p

Das ewige Leben (2015)

Das ewige Leben (2015)

Das ewige Leben (2015)


Screenshots BDRip 1080p

Das ewige Leben (2015)

Das ewige Leben (2015)

Das ewige Leben (2015)

BRRip
http://www.nitroflare.com/view/C6D03EC93366EA9/Das.ewige.Leben.2015.German.BRRip.part1.rar
http://www.nitroflare.com/view/B635315A47525ED/Das.ewige.Leben.2015.German.BRRip.part2.rar
http://www.nitroflare.com/view/9874FD66F089897/Das.ewige.Leben.2015.German.BRRip.part3.rar
BDRip 720p
http://www.nitroflare.com/view/9CBEE00BAF33A93/Das.ewige.Leben.2015.German.720p.BluRay.part1.rar
http://www.nitroflare.com/view/B5EC5660AE58DD5/Das.ewige.Leben.2015.German.720p.BluRay.part2.rar
http://www.nitroflare.com/view/082A6E2B26DA571/Das.ewige.Leben.2015.German.720p.BluRay.part3.rar
http://www.nitroflare.com/view/C52CBF8619A9EF4/Das.ewige.Leben.2015.German.720p.BluRay.part4.rar
BDRip 1080p
http://www.nitroflare.com/view/33C1F83188DCB71/Das.ewige.Leben.2015.German.1080p.BluRay.part01.rar
http://www.nitroflare.com/view/1FACC5768989E0B/Das.ewige.Leben.2015.German.1080p.BluRay.part02.rar
http://www.nitroflare.com/view/C879152BE98B85E/Das.ewige.Leben.2015.German.1080p.BluRay.part03.rar
http://www.nitroflare.com/view/4A565AE7AE23430/Das.ewige.Leben.2015.German.1080p.BluRay.part04.rar
http://www.nitroflare.com/view/643F9129AACB106/Das.ewige.Leben.2015.German.1080p.BluRay.part05.rar
http://www.nitroflare.com/view/75E794D766B07A6/Das.ewige.Leben.2015.German.1080p.BluRay.part06.rar
http://www.nitroflare.com/view/7F5FB2B3B08A065/Das.ewige.Leben.2015.German.1080p.BluRay.part07.rar
http://www.nitroflare.com/view/BC221A6E794A1F1/Das.ewige.Leben.2015.German.1080p.BluRay.part08.rar
http://www.nitroflare.com/view/DE7206B7C16658F/Das.ewige.Leben.2015.German.1080p.BluRay.part09.rar