Tags
Language
Tags

Death by Design (2016)

Posted By: Tavaz
1080p (FullHD) / WEB-DL IMDb
Death by Design (2016)

Death by Design (2016)
WEB-DL | MKV | 1920x1080 | English | H264 @ 4566 kbps | AAC @ 235 kbps | 1 h 13 min | 2.46 GiB
Subtitles: English
Genre: Documentary

Consumers love - and live on - their smartphones, tablets and laptops. A cascade of new devices pours endlessly into the market…



Death.by.Design.2016.1080p.WEB-DL.H264.AAC-aqi.mkv (2.5 GB)



General
Unique ID : 227068358636878751549577891586918766099 (0xAAD3C66F0FB7F01995C209D043CED613)
Complete name : ./Death.by.Design.2016.1080p.WEB-DL.H264.AAC-aqi/Death.by.Design.2016.1080p.WEB-DL.H264.AAC-aqi.mkv
Format : Matroska
Format version : Version 4 / Version 2
File size : 2.46 GiB
Duration : 1 h 13 min
Overall bit rate : 4 805 kb/s
Encoded date : UTC 2017-11-24 01:53:58
Writing application : mkvmerge v9.4.2 ('So High') 64bit
Writing library : libebml v1.3.4 + libmatroska v1.4.5

Video
ID : 1
Format : AVC
Format/Info : Advanced Video Codec
Format profile : High@L4
Format settings : CABAC / 4 Ref Frames
Format settings, CABAC : Yes
Format settings, RefFrames : 4 frames
Codec ID : V_MPEG4/ISO/AVC
Duration : 1 h 13 min
Bit rate : 4 567 kb/s
Width : 1 920 pixels
Height : 1 080 pixels
Display aspect ratio : 16:9
Frame rate mode : Constant
Frame rate : 23.976 (24000/1001) FPS
Color space : YUV
Chroma subsampling : 4:2:0
Bit depth : 8 bits
Scan type : Progressive
Bits/(Pixel*Frame) : 0.092
Stream size : 2.34 GiB (95%)
Writing library : x264 core 150 r10 df79067
Encoding settings : cabac=1 / ref=4 / deblock=1:0:0 / analyse=0x3:0x113 / me=hex / subme=8 / psy=1 / psy_rd=1.00:0.00 / mixed_ref=1 / me_range=16 / chroma_me=1 / trellis=2 / 8x8dct=1 / cqm=0 / deadzone=21,11 / fast_pskip=1 / chroma_qp_offset=-2 / threads=34 / lookahead_threads=5 / sliced_threads=0 / nr=0 / decimate=1 / interlaced=0 / bluray_compat=0 / stitchable=1 / constrained_intra=0 / bframes=3 / b_pyramid=2 / b_adapt=1 / b_bias=0 / direct=3 / weightb=1 / open_gop=0 / weightp=2 / keyint=infinite / keyint_min=23 / scenecut=40 / intra_refresh=0 / rc_lookahead=50 / rc=crf / mbtree=1 / crf=20.0 / qcomp=0.60 / qpmin=5 / qpmax=69 / qpstep=4 / vbv_maxrate=5500 / vbv_bufsize=15000 / crf_max=0.0 / nal_hrd=none / filler=0 / ip_ratio=1.40 / aq=1:1.00
Default : Yes
Forced : No
Color range : Limited
Color primaries : BT.709
Transfer characteristics : BT.709
Matrix coefficients : BT.709

Audio
ID : 2
Format : AAC
Format/Info : Advanced Audio Codec
Format profile : LC
Codec ID : A_AAC-2
Duration : 1 h 13 min
Bit rate : 235 kb/s
Channel(s) : 2 channels
Channel positions : Front: L R
Sampling rate : 48.0 kHz
Frame rate : 46.875 FPS (1024 SPF)
Compression mode : Lossy
Stream size : 123 MiB (5%)
Language : English
Default : Yes
Forced : No

Text
ID : 3
Format : UTF-8
Codec ID : S_TEXT/UTF8
Codec ID/Info : UTF-8 Plain Text
Duration : 1 h 11 min
Bit rate : 70 b/s
Count of elements : 861
Stream size : 36.9 KiB (0%)
Language : English
Default : Yes
Forced : No





Death by Design (2016)


Death by Design (2016)


Death by Design (2016)


Death by Design (2016)


Death by Design (2016)