The Lincoln Lawyer / Der Mandant (2011)

Posted By: FenixN
The Lincoln Lawyer / Der Mandant (2011)

The Lincoln Lawyer / Der Mandant (2011)
BDRip | MKV / x264, 9015 kb/s | 1920x816 | 01:58:29 | English : DTS 1510 kb/s (6 ch) / German: AC3, 640 kb/s (6 ch) | 9.24 GB
Genre: Crime, Drama, Thriller | USA

Mick Haller is a defense lawyer who works out of his Lincoln. When a wealthy Realtor is accused of raping a prostitute, Haller is asked to defend him. The man claims that the woman is trying to get some money out of him. But when Haller looks at the evidence against him, he learns that this case might be linked to an old case of his.
––––––––––––––––––––––––––––-

Bei Cops und Staatsanwälten ist Anwalt Haller unbeliebt, weil er mit Schlitzohrigkeit die Lücken des Systems ausnützt, um für seine meist schuldigen Klienten gute Deals auszuhandeln. Louis Roulet, Sohn aus reichem Haus, scheint die Ausnahme von der Regel zu sein, wurde vielleicht wirklich von einer Prostituierten reingelegt, die er angeblich vergewaltigen und ermorden wollte. Doch ein alter Fall verändert die Sicht auf den neuen, zwingt Haller unter Lebensgefahr, seine ganze Cleverness auszuspielen.

imdb: 7.4/10 (13,527 votes)

Format : Matroska
File size : 9.24 GiB
Duration : 1h 58mn
Overall bit rate : 11.2 Mbps
Encoded date : UTC 2011-06-24 16:57:46
Writing application : mkvmerge v4.6.0 ('Still Crazy After All These Years') gebaut am Mar 10 2011 02:50:32
Writing library : libebml v1.2.0 + libmatroska v1.1.0

Video
ID : 1
Format : AVC
Format/Info : Advanced Video Codec
Format profile : High@L4.1
Format settings, CABAC : Yes
Format settings, ReFrames : 5 frames
Codec ID : V_MPEG4/ISO/AVC
Duration : 1h 58mn
Bit rate : 9 015 Kbps
Width : 1 920 pixels
Height : 816 pixels
Display aspect ratio : 2.35:1
Frame rate : 23.976 fps
Color space : YUV
Chroma subsampling : 4:2:0
Bit depth : 8 bits
Scan type : Progressive
Bits/(Pixel*Frame) : 0.240
Stream size : 7.28 GiB (79%)
Title : The.Lincoln.Lawyer.2011
Writing library : x264 core 114 r1924 08d04a4
Encoding settings : cabac=1 / ref=5 / deblock=1:-3:-3 / analyse=0x3:0x113 / me=umh / subme=10 / psy=1 / psy_rd=1.05:0.10 / mixed_ref=1 / me_range=48 / chroma_me=1 / trellis=2 / 8x8dct=1 / cqm=2 / deadzone=21,11 / fast_pskip=0 / chroma_qp_offset=-2 / threads=12 / sliced_threads=0 / nr=0 / decimate=1 / interlaced=0 / constrained_intra=0 / bframes=6 / b_pyramid=2 / b_adapt=2 / b_bias=0 / direct=3 / weightb=1 / open_gop=0 / weightp=2 / keyint=250 / keyint_min=23 / scenecut=40 / intra_refresh=0 / rc_lookahead=50 / rc=2pass / mbtree=1 / bitrate=9015 / ratetol=1.0 / qcomp=0.70 / qpmin=1 / qpmax=63 / qpstep=4 / cplxblur=20.0 / qblur=0.5 / vbv_maxrate=40000 / vbv_bufsize=40000 / nal_hrd=none / ip_ratio=1.40 / aq=2:0.90
Language : English

Audio #1
ID : 2
Format : AC-3
Format/Info : Audio Coding 3
Mode extension : CM (complete main)
Codec ID : A_AC3
Duration : 1h 58mn
Bit rate mode : Constant
Bit rate : 640 Kbps
Channel(s) : 6 channels
Channel positions : Front: L C R, Side: L R, LFE
Sampling rate : 48.0 KHz
Bit depth : 16 bits
Compression mode : Lossy
Stream size : 542 MiB (6%)
Language : German

Audio #2
ID : 3
Format : DTS
Format/Info : Digital Theater Systems
Codec ID : A_DTS
Duration : 1h 58mn
Bit rate mode : Constant
Bit rate : 1 510 Kbps
Channel(s) : 6 channels
Channel positions : Front: L C R, Side: L R, LFE
Sampling rate : 48.0 KHz
Bit depth : 24 bits
Compression mode : Lossy
Stream size : 1.25 GiB (14%)
Language : English


screenshot
The Lincoln Lawyer / Der Mandant (2011)

The Lincoln Lawyer / Der Mandant (2011)

The Lincoln Lawyer / Der Mandant (2011)


Welcome to the best movies collection (English, German, French language), best software, best eLearning video and many-many more: LINK
Do not forget to check my blog! Updated regularly!