Dernier domicile connu (1970)

Posted By: Tavaz
720p (HD) / HDTV IMDb
Dernier domicile connu (1970)

Dernier domicile connu (1970)
HDTV | MKV | 1200x720 | French | H264 @ 6214 kbps | E-AC-3 @ 384 kbps | 1 h 41 min | 4.68 GiB
Genre: Crime, Thriller

Marceau Léonetti, policier compétent et énergique, décoré de la Légion d'honneur pour acte de bravoure, arrête par hasard le fils d'un avocat influent qui conduit en état d'ivresse, mais ce dernier promet de se venger. Quelques mois plus tard, l'avocat retourne complètement les faits en décrivant Léonetti comme violent et incompétent. Afin d'étouffer l'affaire, Marceau est muté dans un petit commissariat de quartier. Il y rencontre Jeanne, nouvelle auxiliaire de police, avec qui il fait équipe pour enquêter sur des petits délits dans les cinémas. Entretemps, la hiérarchie de la police a un problème difficile : retrouver pour un procès qui doit débuter dans 10 jours un témoin important disparu depuis plusieurs années. En désespoir de cause, ils soumettent le travail à Marceau en lui faisant croire qu'il s'agit d'un travail de routine peu important. Ce dernier commence alors avec Jeanne une enquête pratiquement désespérée. La seule piste : le dernier domicile connu du témoin

dernier.domicile.connu.1970.french.720p.hdtv.x264-deal.sample.mkv (51.9 MB)
Dernier.Domicile.Connu.1970.FRENCH.720p.HDTV.x264-DEAL.mkv (4.7 GB)



General
Unique ID : 52288925355644200871293564109007557211 (0x27567B0FD34D4F7FACF00EFCE26F125B)
Complete name : ./Dernier.Domicile.Connu.1970.FRENCH.720p.HDTV.x264-DEAL.mkv
Format : Matroska
Format version : Version 4 / Version 2
File size : 4.68 GiB
Duration : 1 h 41 min
Overall bit rate : 6 601 kb/s
Encoded date : UTC 2018-03-14 21:36:38
Writing application : mkvmerge v20.0.0 ('I Am The Sun') 64-bit
Writing library : libebml v1.3.5 + libmatroska v1.4.8

Video
ID : 1
Format : AVC
Format/Info : Advanced Video Codec
Format profile : High@L4.1
Format settings : CABAC / 8 Ref Frames
Format settings, CABAC : Yes
Format settings, RefFrames : 8 frames
Codec ID : V_MPEG4/ISO/AVC
Duration : 1 h 41 min
Bit rate : 6 215 kb/s
Width : 1 200 pixels
Height : 720 pixels
Display aspect ratio : 5:3
Frame rate mode : Constant
Frame rate : 25.000 FPS
Color space : YUV
Chroma subsampling : 4:2:0
Bit depth : 8 bits
Scan type : Progressive
Bits/(Pixel*Frame) : 0.288
Stream size : 4.41 GiB (94%)
Writing library : x264 core 155 r2901 7d0ff22
Encoding settings : cabac=1 / ref=8 / deblock=1:-3:-3 / analyse=0x3:0x133 / me=umh / subme=9 / psy=1 / psy_rd=1.00:0.15 / mixed_ref=1 / me_range=16 / chroma_me=1 / trellis=2 / 8x8dct=1 / cqm=0 / deadzone=21,11 / fast_pskip=1 / chroma_qp_offset=-3 / threads=12 / lookahead_threads=1 / sliced_threads=0 / nr=0 / decimate=1 / interlaced=0 / bluray_compat=0 / constrained_intra=0 / bframes=3 / b_pyramid=2 / b_adapt=2 / b_bias=0 / direct=3 / weightb=1 / open_gop=0 / weightp=2 / keyint=250 / keyint_min=25 / scenecut=40 / intra_refresh=0 / rc_lookahead=60 / rc=crf / mbtree=1 / crf=18.0 / qcomp=0.60 / qpmin=0 / qpmax=69 / qpstep=4 / ip_ratio=1.40 / aq=1:1.00
Default : Yes
Forced : No

Audio
ID : 2
Format : E-AC-3
Format/Info : Enhanced Audio Coding 3
Format settings, Endianness : Big
Codec ID : A_EAC3
Duration : 1 h 41 min
Bit rate mode : Constant
Bit rate : 384 kb/s
Channel(s) : 6 channels
Channel positions : Front: L C R, Side: L R, LFE
Sampling rate : 48.0 kHz
Frame rate : 187.500 FPS (256 SPF)
Compression mode : Lossy
Stream size : 279 MiB (6%)
Language : French
Service kind : Complete Main
Default : Yes
Forced : No





Dernier domicile connu (1970)


Dernier domicile connu (1970)


Dernier domicile connu (1970)


Dernier domicile connu (1970)


Dernier domicile connu (1970)