Desperate Man Blues (2003)

Posted By: vivid23
Desperate Man Blues (2003)

Desperate Man Blues (2003)
DVDrip | 560x320 | AVI/XviD @ 1595 Kbps | 52mn | Audio: English MP3 270 kbps, 2 channels | Subs: None | 699 MB
Genre: Documentary

Record collector Joe Bussard parties like it's 1929! A cultural scavenger, musician and broadcaster, he was a pioneer in the preservation of 78rpm records and the roots music produced in pure and undiluted form in the 20s and 30s. Bussard has rescued priceless shellac artefacts from attics and basements across the US for more than 50 years. He has amassed a vast collection of more than 25,000 rare discs. At 65 Bussard has the enthusiasm and energy of a 16-year-old and will happily spin 75-year-old records all day for anyone who will listen. All the while he gives a running commentary on the music and performer, reliving the day it was made and relating some crazy tale of how he came to rescue the record!

More info

Video
ID : 0
Format : MPEG-4 Visual
Format profile : Simple@L0
Format settings, BVOP : No
Format settings, QPel : No
Format settings, GMC : No warppoints
Format settings, Matrix : Default (H.263)
Codec ID : XVID
Codec ID/Hint : XviD
Duration : 52mn 3s
Bit rate : 1 595 Kbps
Width : 560 pixels
Height : 320 pixels
Display aspect ratio : 16:9
Frame rate : 29.970 fps
Color space : YUV
Chroma subsampling : 4:2:0
Bit depth : 8 bits
Scan type : Progressive
Compression mode : Lossy
Bits/(Pixel*Frame) : 0.297
Stream size : 594 MiB (85%)
Writing library : XviD 1.0.3 (UTC 2004-12-20)

Audio
ID : 1
Format : MPEG Audio
Format version : Version 1
Format profile : Layer 3
Mode : Joint stereo
Codec ID : 55
Codec ID/Hint : MP3
Duration : 52mn 3s
Bit rate mode : Variable
Bit rate : 270 Kbps
Channel(s) : 2 channels
Sampling rate : 48.0 KHz
Compression mode : Lossy
Stream size : 100 MiB (14%)
Alignment : Aligned on interleaves
Interleave, duration : 24 ms (0.72 video frame)
Interleave, preload duration : 472 ms
Writing library : LAME3.96r
Encoding settings : -m j -V 4 -q 2 -lowpass 20.5 –abr
Language : un / Ndonga


Desperate Man Blues (2003)

Desperate Man Blues (2003)


Feel free to contact me when links are dead