Diana Vreeland: The Eye Has to Travel (2011)

Posted By: ParRus
Diana Vreeland: The Eye Has to Travel (2011)

Diana Vreeland: The Eye Has to Travel (2011)
DVDRip | English | AVI | 640 x 352 | XviD ~1001 Kbps | 23.976 fps
MP3 | 118 kbps | 48.0 KHz | 2 channels | 1h 26mn | 697 MB
Genre: Documentary, Biography

For decades, Diana Vreeland was one of the leading authorities in fashion through eccentric self-taught skill and a bold stylistic audacity. This film guides you through this fashion pioneer's long career from her youth in Paris until she became a leading magazine fashion columnist and editor. In this medium, Vreeland challenged its preconceptions to present a new definition of beauty and vivaciousness where nice clothes were just the beginning for something deeper. Even when that vocation ended, Vreeland managed to gain a new museum profession to present clothing's history in her own inimitable way.
Directors: Lisa Immordino Vreeland, Bent-Jorgen Perlmutt
Stars: Diana Vreeland, Philippe De Montebello
IMDB info

General
Complete name : diana.vreeland.the.eye.has.to.travel.limited.2011.avi
Format : AVI
Format/Info : Audio Video Interleave
File size : 697 MiB
Duration : 1h 26mn
Overall bit rate mode : Variable
Overall bit rate : 1 131 Kbps
Writing application : Nandub v1.0rc2
Writing library : Nandub build 1852/release
Video #0
ID : 0
Format : MPEG-4 Visual
Format profile : Advanced Simple@L5
Format settings, BVOP : 2
Format settings, QPel : No
Format settings, GMC : No warppoints
Format settings, Matrix : Default (H.263)
Muxing mode : Packed bitstream
Codec ID : XVID
Codec ID/Hint : XviD
Duration : 1h 26mn
Bit rate : 1 001 Kbps
Width : 640 pixels
Height : 352 pixels
Display aspect ratio : 16:9
Frame rate : 23.976 fps
Color space : YUV
Chroma subsampling : 4:2:0
Bit depth : 8 bits
Scan type : Progressive
Compression mode : Lossy
Bits/(Pixel*Frame) : 0.185
Stream size : 616 MiB (88%)
Writing library : XviD 72
Audio #1
ID : 1
Format : MPEG Audio
Format version : Version 1
Format profile : Layer 3
Mode : Joint stereo
Mode extension : MS Stereo
Codec ID : 55
Codec ID/Hint : MP3
Duration : 1h 26mn
Bit rate mode : Variable
Bit rate : 118 Kbps
Channel(s) : 2 channels
Sampling rate : 48.0 KHz
Compression mode : Lossy
Stream size : 72.5 MiB (10%)
Alignment : Aligned on interleaves
Interleave, duration : 24 ms (0.58 video frame)
Interleave, preload duration : 149 ms
Writing library : LAME3.93
Encoding settings : -m j -V 1 -q 2 -lowpass 19.5 –vbr-new

ScreenShots

Diana Vreeland: The Eye Has to Travel (2011)

Diana Vreeland: The Eye Has to Travel (2011)

Diana Vreeland: The Eye Has to Travel (2011)

Diana Vreeland: The Eye Has to Travel (2011)

Diana Vreeland: The Eye Has to Travel (2011)

For more, Visit my AH-blog

no mirrors please, Follow The Rules