Subcategories

Diario di una schiappa: Portatemi a casa (2017)

Posted By: JohnSmith
Diario di una schiappa: Portatemi a casa (2017)

Diario di una schiappa: Portatemi a casa / Diary of a Wimpy Kid: The Long Haul (2017)
BDRip | MKV / AVC@1840 kb/s | 848x356 | 1h 31mn | 1.57 GB
Italian (dubbed): AC3, 640 kb/s (6 ch) | Subtitles: Italian (forced, full)
BDRip 720p | MKV / AVC@3940 kb/s | 1280x536 | 1h 31mn | 3.01 GB
Italian (dubbed): DTS, 768 kb/s (6 ch) | Subtitles: Italian (forced, full)
Genre: Comedy | Family

Greg convince la sua famiglia a partire per prendere parte ai festeggiamenti del 90° compleanno della bisnonna. In realtà, il viaggio è solo una scusa per poter partecipare a un convegno di giocatori che si tiene nelle vicinanze. Ovviamente le cose non andranno secondo i suoi piani.




General
Unique ID : 248764097391837481162369991880931419698 (0xBB2638F0E155296EA479692EFD9A2632)
Complete name : A:\Diario.di.una.schiappa.Portatemi.a.casa.2017.ITA.BDRip.480p.CB01HD.mkv
Format : Matroska
Format version : Version 4 / Version 2
File size : 1.57 GiB
Duration : 1 h 31 min
Overall bit rate : 2 461 kb/s
Encoded date : UTC 2017-10-11 05:26:42
Writing application : mkvmerge v8.3.0 ('Over the Horizon') 64bit
Writing library : libebml v1.3.1 + libmatroska v1.4.2

Video
ID : 1
Format : AVC
Format/Info : Advanced Video Codec
Format profile : Main@L3
Format settings, CABAC : Yes
Format settings, ReFrames : 1 frame
Codec ID : V_MPEG4/ISO/AVC
Duration : 1 h 31 min
Bit rate : 1 838 kb/s
Width : 848 pixels
Height : 356 pixels
Display aspect ratio : 2.40:1
Frame rate mode : Constant
Frame rate : 23.976 (24000/1001) FPS
Color space : YUV
Chroma subsampling : 4:2:0
Bit depth : 8 bits
Scan type : Progressive
Bits/(Pixel*Frame) : 0.254
Stream size : 1.16 GiB (74%)
Writing library : x264 core 129
Encoding settings : cabac=1 / ref=1 / deblock=1:0:0 / analyse=0x1:0x131 / me=dia / subme=2 / psy=1 / psy_rd=1.00:0.00 / mixed_ref=0 / me_range=16 / chroma_me=1 / trellis=0 / 8x8dct=0 / cqm=0 / deadzone=21,11 / fast_pskip=1 / chroma_qp_offset=0 / threads=8 / lookahead_threads=1 / sliced_threads=0 / nr=0 / decimate=1 / interlaced=0 / bluray_compat=0 / constrained_intra=0 / bframes=0 / weightp=2 / keyint=250 / keyint_min=25 / scenecut=40 / intra_refresh=0 / rc_lookahead=40 / rc=abr / mbtree=1 / bitrate=1838 / ratetol=1.0 / qcomp=0.60 / qpmin=10 / qpmax=51 / qpstep=4 / ip_ratio=1.41 / aq=1:1.00
Language : English
Default : Yes
Forced : No

Audio
ID : 2
Format : AC-3
Format/Info : Audio Coding 3
Format settings, Endianness : Big
Codec ID : A_AC3
Duration : 1 h 31 min
Bit rate mode : Constant
Bit rate : 640 kb/s
Channel(s) : 6 channels
Channel positions : Front: L C R, Side: L R, LFE
Sampling rate : 48.0 kHz
Frame rate : 31.250 FPS (1536 spf)
Bit depth : 16 bits
Compression mode : Lossy
Stream size : 418 MiB (26%)
Language : Italian
Service kind : Complete Main
Default : Yes
Forced : No

Text #1
ID : 3
Format : UTF-8
Codec ID : S_TEXT/UTF8
Codec ID/Info : UTF-8 Plain Text
Duration : 1 h 16 min
Bit rate : 0 b/s
Count of elements : 16
Stream size : 467 Bytes (0%)
Title : Forced
Language : Italian
Default : Yes
Forced : No

Text #2
ID : 4
Format : UTF-8
Codec ID : S_TEXT/UTF8
Codec ID/Info : UTF-8 Plain Text
Duration : 1 h 30 min
Bit rate : 52 b/s
Count of elements : 1003
Stream size : 35.1 KiB (0%)
Language : Italian
Default : No
Forced : No





General
Unique ID : 203335305100785764149275790281701021823 (0x98F8F48D85ECBDB6B361F33330FF587F)
Complete name : A:\diarioschiappaportatemicasa-720.mkv
Format : Matroska
Format version : Version 4 / Version 2
File size : 3.01 GiB
Duration : 1 h 31 min
Overall bit rate : 4 712 kb/s
Encoded date : UTC 2017-10-11 05:26:03
Writing application : mkvmerge v8.3.0 ('Over the Horizon') 64bit
Writing library : libebml v1.3.1 + libmatroska v1.4.2

Video
ID : 1
Format : AVC
Format/Info : Advanced Video Codec
Format profile : High@L4.1
Format settings, CABAC : Yes
Format settings, ReFrames : 5 frames
Codec ID : V_MPEG4/ISO/AVC
Duration : 1 h 31 min
Bit rate : 3 942 kb/s
Width : 1 280 pixels
Height : 536 pixels
Display aspect ratio : 2.40:1
Frame rate mode : Constant
Frame rate : 23.976 (24000/1001) FPS
Color space : YUV
Chroma subsampling : 4:2:0
Bit depth : 8 bits
Scan type : Progressive
Bits/(Pixel*Frame) : 0.240
Stream size : 2.52 GiB (84%)
Writing library : x264 core 148 r2721 72d53ab
Language : English
Default : Yes
Forced : No

Audio
ID : 2
Format : DTS
Format/Info : Digital Theater Systems
Mode : 16
Format settings, Endianness : Big
Codec ID : A_DTS
Duration : 1 h 31 min
Bit rate mode : Constant
Bit rate : 768 kb/s
Channel(s) : 6 channels
Channel positions : Front: L C R, Side: L R, LFE
Sampling rate : 48.0 kHz
Frame rate : 93.750 FPS (512 spf)
Bit depth : 24 bits
Compression mode : Lossy
Stream size : 502 MiB (16%)
Title : Dts Ita 5.1 Ch
Language : Italian
Default : Yes
Forced : No

Text #1
ID : 3
Format : UTF-8
Codec ID : S_TEXT/UTF8
Codec ID/Info : UTF-8 Plain Text
Duration : 1 h 10 min
Bit rate : 1 b/s
Count of elements : 17
Stream size : 568 Bytes (0%)
Title : FORCED Ita
Language : Italian
Default : Yes
Forced : Yes

Text #2
ID : 4
Format : UTF-8
Codec ID : S_TEXT/UTF8
Codec ID/Info : UTF-8 Plain Text
Duration : 1 h 30 min
Bit rate : 52 b/s
Count of elements : 1003
Stream size : 35.0 KiB (0%)
Title : Subs Ita regular
Language : Italian
Default : No
Forced : No




Screenshots BDRip

Diario di una schiappa: Portatemi a casa (2017)

Diario di una schiappa: Portatemi a casa (2017)

Diario di una schiappa: Portatemi a casa (2017)


Screenshots BDRip 720p

Diario di una schiappa: Portatemi a casa (2017)

Diario di una schiappa: Portatemi a casa (2017)

Diario di una schiappa: Portatemi a casa (2017)