Da hong deng long gao gao gua / Die rote Laterne (1991)

Posted By: denisbul
Da hong deng long gao gao gua / Die rote Laterne (1991)

Da hong deng long gao gao gua / Die rote Laterne (1991)
Audio: Chinese - AC3 2.0 @ 448 Kb/s; German - AC3 2.0 - 384 Kb/s | Subs: No
BluRay 720p | MKV | 02:04:40 | 1280x688 | H264 - 5876 Kb/s | 6.02 GB
Genre: Drama | China, Hong Kong, Taiwan

IMDB
Directed by: Yimou Zhang
Starring: Li Gong, Jingwu Ma, Saifei He

English
China in the 1920's. After her father's death, nineteen year old Songlian is forced to marry Chen Zuoqian, the lord of a powerful family. Fifty year old Chen has already three wives, each of them living in separate houses within the great castle. The competition between the wives is tough, as their master's attention carries power, status and privilege. Each night Chen must decide with which wife to spend the night and a red lantern is lit in front of the house of his choice. And each wife schemes and plots to make sure it's hers. However, things get out of hand…
German
Im China der 20er Jahre heiratet die Studentin Songlian nach dem Tod ihres Vaters auf Drangen ihrer Stiefmutter den reichen Herrn Chen und zieht als seine vierte Frau in dessen prachtiges Anwesen ein. Chen ist ein machtiger Clan-Chef in Nordchina und herrscht unumschrankt in seiner Sippe. Seine erste Frau hat ihm einen Sohn geboren, die zweite Frau ist eine geschickte Intrigantin und die dritte Frau hat heimlich ein Verhaltnis mit dem Hausarzt. Alle vier Frauen bewohnen ein eigenes Haus und haben eigene Dienerinnen. Allabendlich unterwirft Herr Chen seine Frauen einem strengen Ritual. Sie mussen vor ihren Hausern Aufstellung nehmen, dann wird verkundet, bei welcher Frau der Herr die Nacht verbringt. Als Symbol seiner Gunst leuchten anschlie?end rote Laternen im Hof und in den Gemachern der Favoritin. Songlian begreift bald, wie sie sich vor den anderen Frauen einen Vorteil verschaffen kann. Sie gibt vor, schwanger zu sein. Damit kann sie Chen einige Zeit lang fester an sich binden. Umso schlimmer ist aber ihre Niederlage, als die Tauschung offenbar wird.
Complete name : Raise.the.Red.Lantern.Rote.Laterne.1991.720p-msd.mkv
Format : Matroska
File size : 5.84 GiB
Duration : 2h 4mn
Overall bit rate : 6 710 Kbps
Encoded date : UTC 2011-10-12 17:53:36
Writing application : mkvmerge v5.0.1 ('Es ist Sommer') built on Oct 9 2011 11:55:43
Writing library : libebml v1.2.2 + libmatroska v1.3.0

Video
ID : 1
Format : AVC
Format/Info : Advanced Video Codec
Format profile : High@L4.1
Format settings, CABAC : Yes
Format settings, ReFrames : 8 frames
Codec ID : V_MPEG4/ISO/AVC
Duration : 2h 4mn
Bit rate : 5 876 Kbps
Width : 1 280 pixels
Height : 688 pixels
Display aspect ratio : 1.860
Frame rate : 24.000 fps
Color space : YUV
Chroma subsampling : 4:2:0
Bit depth : 8 bits
Scan type : Progressive
Bits/(Pixel*Frame) : 0.278
Stream size : 5.00 GiB (86%)
Writing library : x264 core 98 r1649 c54c47d
Encoding settings : cabac=1 / ref=8 / deblock=1:-3:-3 / analyse=0x3:0x113 / me=umh / subme=9 / psy=1 / psy_rd=1.10:0.00 / mixed_ref=1 / me_range=32 / chroma_me=1 / trellis=2 / 8x8dct=1 / cqm=0 / deadzone=21,11 / fast_pskip=0 / chroma_qp_offset=-4 / threads=6 / sliced_threads=0 / nr=0 / decimate=0 / interlaced=0 / constrained_intra=0 / bframes=6 / b_pyramid=2 / b_adapt=2 / b_bias=0 / direct=3 / weightb=1 / weightp=2 / keyint=250 / keyint_min=25 / scenecut=40 / intra_refresh=0 / rc_lookahead=48 / rc=2pass / mbtree=1 / bitrate=5876 / ratetol=1.0 / qcomp=0.60 / qpmin=10 / qpmax=51 / qpstep=4 / cplxblur=20.0 / qblur=0.5 / ip_ratio=1.40 / aq=1:0.80

Audio #1
ID : 2
Format : AC-3
Format/Info : Audio Coding 3
Mode extension : CM (complete main)
Codec ID : A_AC3
Duration : 2h 4mn
Bit rate mode : Constant
Bit rate : 448 Kbps
Channel(s) : 2 channels
Channel positions : Front: L R
Sampling rate : 48.0 KHz
Bit depth : 16 bits
Compression mode : Lossy
Stream size : 399 MiB (7%)
Language : Chinese

Audio #2
ID : 3
Format : AC-3
Format/Info : Audio Coding 3
Mode extension : CM (complete main)
Codec ID : A_AC3
Duration : 2h 4mn
Bit rate mode : Constant
Bit rate : 384 Kbps
Channel(s) : 2 channels
Channel positions : Front: L R
Sampling rate : 48.0 KHz
Bit depth : 16 bits
Compression mode : Lossy
Stream size : 342 MiB (6%)
Language : German

Da hong deng long gao gao gua / Die rote Laterne (1991)

Da hong deng long gao gao gua / Die rote Laterne (1991)

Da hong deng long gao gao gua / Die rote Laterne (1991)

Da hong deng long gao gao gua / Die rote Laterne (1991)

Da hong deng long gao gao gua / Die rote Laterne (1991)

Welcome to My Blog!

No Mirrors, Please - Added 3% Recovery Record
Filesonic.com | Filepost.com

Interchangable links