Divine Secrets of the Ya-Ya Sisterhood (2002)

Posted By: Tavaz
1080p (FullHD) / WEB-DL IMDb
Divine Secrets of the Ya-Ya Sisterhood (2002)

Divine Secrets of the Ya-Ya Sisterhood (2002)
WEB-DL | MKV | 1920x1080 | English | H264 @ 8486 kbps | E-AC-3 @ 224 kbps | 1 h 56 min | 7.09 GiB
Subtitles: English
Genre: Comedy, Drama, Romance

A mother and daughter dispute is resolved by the "Yaya sisterhood" - long time friends of the mother.

d32473095de3428aaedb84e6e25131a0.mkv (7.1 GB)



General
Unique ID : 206531672834291399746726327596068282289 (0x9B608DA638CEAA5A846DC21549FE9FB1)
Complete name : ./d32473095de3428aaedb84e6e25131a0.mkv
Format : Matroska
Format version : Version 4 / Version 2
File size : 7.09 GiB
Duration : 1 h 56 min
Overall bit rate mode : Variable
Overall bit rate : 8 712 kb/s
Encoded date : UTC 2017-07-13 23:30:49
Writing application : mkvmerge v13.0.0 ('The Juggler') 64bit
Writing library : libebml v1.3.4 + libmatroska v1.4.5

Video
ID : 1
Format : AVC
Format/Info : Advanced Video Codec
Format profile : High@L4
Format settings : CABAC / 4 Ref Frames
Format settings, CABAC : Yes
Format settings, RefFrames : 4 frames
Codec ID : V_MPEG4/ISO/AVC
Duration : 1 h 56 min
Bit rate mode : Variable
Bit rate : 8 486 kb/s
Maximum bit rate : 15.0 Mb/s
Width : 1 920 pixels
Height : 1 080 pixels
Display aspect ratio : 16:9
Frame rate mode : Constant
Frame rate : 23.976 (24000/1001) FPS
Color space : YUV
Chroma subsampling : 4:2:0
Bit depth : 8 bits
Scan type : Progressive
Bits/(Pixel*Frame) : 0.171
Stream size : 6.91 GiB (97%)
Default : Yes
Forced : No
Color range : Limited
Color primaries : BT.709
Transfer characteristics : BT.709
Matrix coefficients : BT.709

Audio
ID : 2
Format : E-AC-3
Format/Info : Enhanced Audio Coding 3
Format settings, Endianness : Big
Codec ID : A_EAC3
Duration : 1 h 56 min
Bit rate mode : Constant
Bit rate : 224 kb/s
Channel(s) : 2 channels
Channel positions : Front: L R
Sampling rate : 48.0 kHz
Frame rate : 187.500 FPS (256 SPF)
Compression mode : Lossy
Stream size : 187 MiB (3%)
Language : English
Service kind : Complete Main
Default : Yes
Forced : No

Text
ID : 3
Format : UTF-8
Codec ID : S_TEXT/UTF8
Codec ID/Info : UTF-8 Plain Text
Duration : 1 h 50 min
Bit rate : 60 b/s
Count of elements : 1940
Stream size : 49.4 KiB (0%)
Language : English
Default : No
Forced : No





Divine Secrets of the Ya-Ya Sisterhood (2002)


Divine Secrets of the Ya-Ya Sisterhood (2002)


Divine Secrets of the Ya-Ya Sisterhood (2002)


Divine Secrets of the Ya-Ya Sisterhood (2002)


Divine Secrets of the Ya-Ya Sisterhood (2002)