BBC - Divine Women (2012)

Posted By: vivid23
BBC - Divine Women (2012)

BBC - Divine Women (2012)
PDTV | 720x400 | AVI/XviD @ 1527 Kbps | 3x59mn | Audio: English AC3 128 kbps, 2 channels | Subs: English | 3x702 MB
Genre: Documentary | Filepost/Rapidgator/Letitbit

In this three-part series historian Bettany Hughes goes back to the beginning of time and visits the world's oldest religious site’s to find startling evidence that women were part of the very birth of organised religion. She visits a world where goddesses ruled the heavens and earth, and reveals why our ancestors thought of the divine as female.

Part 1: When God was a Girl
Historian Bettany Hughes. visits a world where goddesses ruled the heavens and earth, and reveals why our ancestors thought of the divine as female. Travelling across the Mediterranean and the Near East, Bettany goes to remote places, where she encounters fearsome goddesses who controlled life and death. And she ends up in modern-day India, where the goddess is still a powerful force for thousands of Hindus. Immersing herself in the excitement of the Durga Puja festival, Bettany experiences goddess worship first-hand, and finds out what the goddess means to her devotees.


Part 2: Handmaids of the Gods
Historian Bettany Hughes continues her journey into the hidden and controversial history of women's place in religion as she uncovers the lost era of the priestess. She delves into the ancient Greek worship of the goddess of sex, Aphrodite, and finds out what this practice meant for women. She also heads to ancient Rome, where the fate of the civilisation lay in the hands of six sacred virgins. Returning to the crucial early years of Christianity, she finds evidence that overturns centuries of Church teaching and challenges the belief that women should not be priests.


Part 3: Women War of the Words
Programme Three explores a missed 'golden age' for women, when historical characters such as the Empress Theodora in Byzantium, Wu Zetien in China (the Empress who called herself Emperor), the early women of Islam and Anglo-Saxon Hilda of Whitby, used the power of ancient traditions and new ideas about religion and philosophy to wield influence in a man's world - notably through the power of reform, education and the word. We look at evidence through the Byzantine Empire, early Islam, in China, Northumbria and Oxford.

Video
ID : 0
Format : MPEG-4 Visual
Format profile : Advanced Simple@L5
Format settings, BVOP : 2
Format settings, QPel : No
Format settings, GMC : No warppoints
Format settings, Matrix : Custom
Codec ID : XVID
Codec ID/Hint : XviD
Duration : 58mn 59s
Bit rate : 1 527 Kbps
Width : 720 pixels
Height : 400 pixels
Display aspect ratio : 16:9
Frame rate : 25.000 fps
Color space : YUV
Chroma subsampling : 4:2:0
Bit depth : 8 bits
Scan type : Progressive
Compression mode : Lossy
Bits/(Pixel*Frame) : 0.212
Stream size : 644 MiB (92%)
Writing library : XviD 1.2.1 (UTC 2008-12-04)

Audio
ID : 1
Format : AC-3
Format/Info : Audio Coding 3
Mode extension : CM (complete main)
Format settings, Endianness : Big
Codec ID : 2000
Duration : 58mn 59s
Bit rate mode : Constant
Bit rate : 128 Kbps
Channel(s) : 2 channels
Channel positions : Front: L R
Sampling rate : 48.0 KHz
Bit depth : 16 bits
Compression mode : Lossy
Stream size : 54.0 MiB (8%)
Alignment : Split accross interleaves
Interleave, duration : 40 ms (1.00 video frame)
Interleave, preload duration : 500 ms


BBC - Divine Women (2012)

BBC - Divine Women (2012)

BBC - Divine Women (2012)


Feel free to contact me when links are dead




http://filepost.com/files/b953eb4m/Divine.Women.1of3.part1.rar
http://filepost.com/files/4acb3e74/Divine.Women.1of3.part2.rar
http://filepost.com/files/65767a8f/Divine.Women.1of3.part3.rar
http://filepost.com/files/843fb7f9/Divine.Women.2of3.part1.rar
http://filepost.com/files/fba6f1ea/Divine.Women.2of3.part2.rar
http://filepost.com/files/m857m4md/Divine.Women.2of3.part3.rar
http://filepost.com/files/c9edcf55/Divine.Women.3of3.part1.rar
http://filepost.com/files/c48a959c/Divine.Women.3of3.part2.rar
http://filepost.com/files/bc4b7m56/Divine.Women.3of3.part3.rar

http://rapidgator.net/file/8256623/Divine.Women.1of3.part1.rar
http://rapidgator.net/file/8256622/Divine.Women.1of3.part2.rar
http://rapidgator.net/file/8256582/Divine.Women.1of3.part3.rar
http://rapidgator.net/file/8256625/Divine.Women.2of3.part1.rar
http://rapidgator.net/file/8256627/Divine.Women.2of3.part2.rar
http://rapidgator.net/file/8256635/Divine.Women.2of3.part3.rar
http://rapidgator.net/file/8256714/Divine.Women.3of3.part1.rar
http://rapidgator.net/file/8256728/Divine.Women.3of3.part2.rar
http://rapidgator.net/file/8256666/Divine.Women.3of3.part3.rar

http://letitbit.net/download/91695.93aef4b399d30bd3e8492f67c4d8/Divine.Women.1of3.part1.rar.html
http://letitbit.net/download/88367.86811d282ea4e1230daddc965246/Divine.Women.1of3.part2.rar.html
http://letitbit.net/download/36368.356428fb3c5b3b0a467f03307572/Divine.Women.1of3.part3.rar.html
http://letitbit.net/download/96400.9b1386c1e0a4bf5db9d2bcc593c6/Divine.Women.2of3.part1.rar.html
http://letitbit.net/download/98758.924cf68912f0774c4ee79a5e95f2/Divine.Women.2of3.part2.rar.html
http://letitbit.net/download/86350.8fa64cc8a5ce11b08ae13d92b69a/Divine.Women.2of3.part3.rar.html
http://letitbit.net/download/70363.7dc91eb97647643aac34e2047d5b/Divine.Women.3of3.part1.rar.html
http://letitbit.net/download/26444.2b12703b5645ec84899d4b26ad00/Divine.Women.3of3.part2.rar.html
http://letitbit.net/download/02113.01743f9c70e57dafb919b4822d36/Divine.Women.3of3.part3.rar.html