Tags
Language
Tags

Dogs Don't Wear Pants (2019)

Posted By: Tavaz
720p (HD) / BDRip IMDb
Dogs Don't Wear Pants (2019)

Dogs Don't Wear Pants (2019)
BDRip | MKV | 1280x536 | Suomi / English | H264 @ 7744 kbps | AC-3 @ 640 kbps | 1 h 44 min | 6.17 GiB
Subtitles: English
Genre: Drama, Romance, Comedy

Juha has lost his wife in an accident. Years after, he still feels numb and unable to connect with people. Meeting Mona, a dominatrix, changes everything.

f412905f3ddd23237894d2a669619ca4.mkv (6.2 GB)



General
Unique ID : 67139481635792244703499971097157474267 (0x32829804260361A9F8B1C3FF082497DB)
Complete name : ./f412905f3ddd23237894d2a669619ca4.mkv
Format : Matroska
Format version : Version 4 / Version 2
File size : 6.17 GiB
Duration : 1 h 44 min
Overall bit rate : 8 441 kb/s
Encoded date : UTC 2021-07-17 00:10:57
Writing application : mkvmerge v59.0.0 ('Shining Star') 64-bit
Writing library : libebml v1.4.2 + libmatroska v1.6.4
Cover : Yes
Attachments : cover.jpg
IMDB : tt9074574
TMDB : movie/524780

Video
ID : 1
Format : AVC
Format/Info : Advanced Video Codec
Format profile : High@L4.1
Format settings : CABAC / 9 Ref Frames
Format settings, CABAC : Yes
Format settings, RefFrames : 9 frames
Codec ID : V_MPEG4/ISO/AVC
Duration : 1 h 44 min
Bit rate : 7 745 kb/s
Width : 1 280 pixels
Height : 536 pixels
Display aspect ratio : 2.40:1
Frame rate mode : Constant
Frame rate : 24.000 FPS
Color space : YUV
Chroma subsampling : 4:2:0
Bit depth : 8 bits
Scan type : Progressive
Bits/(Pixel*Frame) : 0.470
Stream size : 5.66 GiB (92%)
Title : Dogs.Dont.Wear.Pants.(2019).720p.BluRay.DD5.1.x264-DON
Writing library : x264 core 164 r3065+55M 280faca t_mod_New [(8 & 10)-bit@all X86_64]
Encoding settings : cabac=1 / ref=9 / deblock=1:-3:-3 / analyse=0x3:0x113 / me=umh / subme=11 / psy=1 / fade_compensate=0.00 / psy_rd=1.00:0.00 / mixed_ref=1 / me_range=32 / chroma_me=1 / trellis=2 / 8x8dct=1 / cqm=0 / deadzone=21,11 / fast_pskip=0 / chroma_qp_offset=-2 / threads=17 / lookahead_threads=4 / sliced_threads=0 / slices=4 / nr=0 / decimate=0 / interlaced=0 / bluray_compat=0 / constrained_intra=0 / fgo=0 / bframes=16 / b_pyramid=2 / b_adapt=2 / b_bias=0 / direct=3 / weightb=1 / open_gop=0 / weightp=2 / keyint=250 / keyint_min=23 / scenecut=40 / intra_refresh=0 / rc_lookahead=250 / rc=crf / mbtree=0 / crf=13.2000 / qcomp=0.64 / qpmin=0:0:0 / qpmax=69:69:69 / qpstep=4 / vbv_maxrate=62500 / vbv_bufsize=78125 / crf_max=0.0 / nal_hrd=none / filler=0 / ip_ratio=1.40 / pb_ratio=1.30 / aq=2:0.70 / aq-sensitivity=10.00 / aq-factor=1.00:1.00:1.00 / aq2=0 / aq3=0 / zones=145800,150624,crf=42
Language : Finnish
Default : Yes
Forced : No
Color range : Limited
Color primaries : BT.709
Transfer characteristics : BT.709
Matrix coefficients : BT.709

Audio #1
ID : 2
Format : AC-3
Format/Info : Audio Coding 3
Format settings, Endianness : Big
Codec ID : A_AC3
Duration : 1 h 44 min
Bit rate mode : Constant
Bit rate : 640 kb/s
Channel(s) : 6 channels
Channel positions : Front: L C R, Side: L R, LFE
Sampling rate : 48.0 kHz
Frame rate : 31.250 FPS (1536 SPF)
Bit depth : 16 bits
Compression mode : Lossy
Stream size : 479 MiB (8%)
Title : DD5.1 @ 640 Kbps (Pro Encoder)
Language : Finnish
Service kind : Complete Main
Default : Yes
Forced : No

Audio #2
ID : 3
Format : AAC
Format/Info : Advanced Audio Codec
Format profile : HE-AAC / LC
Format settings : Explicit
Codec ID : A_AAC-2
Duration : 1 h 44 min
Bit rate : 52.6 kb/s
Channel(s) : 2 channels
Channel positions : Front: L R
Sampling rate : 48.0 kHz / 24.0 kHz
Frame rate : 23.438 FPS (1024 SPF)
Compression mode : Lossy
Stream size : 39.4 MiB (1%)
Title : Commentary by director/co-writer J.-P. Valkeapää (fdkaac -m 3)
Language : English
Default : No
Forced : No

Text #1
ID : 4
Format : UTF-8
Codec ID : S_TEXT/UTF8
Codec ID/Info : UTF-8 Plain Text
Duration : 1 h 40 min
Bit rate : 13 b/s
Count of elements : 424
Stream size : 9.64 KiB (0%)
Title : Srt
Language : English
Default : Yes
Forced : No

Text #2
ID : 5
Format : VobSub
Muxing mode : zlib
Codec ID : S_VOBSUB
Codec ID/Info : Picture based subtitle format used on DVDs
Duration : 1 h 40 min
Bit rate : 1 189 b/s
Count of elements : 424
Stream size : 877 KiB (0%)
Title : Vobsub
Language : English
Default : No
Forced : No

Menu
00:00:00.000 : Chapter 01
00:07:10.792 : Chapter 02
00:18:02.542 : Chapter 03
00:27:08.208 : Chapter 04
00:34:21.417 : Chapter 05
00:43:03.292 : Chapter 06
00:50:24.375 : Chapter 07
01:01:57.208 : Chapter 08
01:07:29.042 : Chapter 09
01:17:24.750 : Chapter 10
01:30:59.417 : Chapter 11
01:36:20.458 : Chapter 12
01:41:15.208 : Chapter 13





Dogs Don't Wear Pants (2019)


Dogs Don't Wear Pants (2019)


Dogs Don't Wear Pants (2019)


Dogs Don't Wear Pants (2019)


Dogs Don't Wear Pants (2019)