Tags
Language
Tags

Dogs Don't Wear Pants (2019)

Posted By: Tavaz
720p (HD) / BDRip IMDb
Dogs Don't Wear Pants (2019)

Dogs Don't Wear Pants (2019)
BDRip | MKV | 1280x720 | Suomi / English | H264 @ 2560 kbps | AC-3 @ 448 kbps | 1 h 44 min | 2.34 GiB
Subtitles: English
Genre: Drama, Romance, Comedy

Juha has lost his wife in an accident. Years after, he still feels numb and unable to connect with people. Meeting Mona, a dominatrix, changes everything.

1a991ac78590c68330ebe7ca4b10d887.mkv (2.3 GB)



General
Unique ID : 26183872458388116937956004038086800327 (0x13B2D4954683D54D0EC884A32784B3C7)
Complete name : ./1a991ac78590c68330ebe7ca4b10d887.mkv
Format : Matroska
Format version : Version 4 / Version 2
File size : 2.34 GiB
Duration : 1 h 44 min
Overall bit rate : 3 203 kb/s
Movie name : Dogs.Don't.Wear.Pants.2019.720p.BluRay.x264-x0r
Encoded date : UTC 2021-06-15 01:14:49
Writing application : mkvmerge v7.7.0 ('Six Voices') 64bit built on Mar 1 2015 01:50:05
Writing library : libebml v1.3.1 + libmatroska v1.4.2

Video
ID : 1
Format : AVC
Format/Info : Advanced Video Codec
Format profile : High@L4.1
Format settings : CABAC / 8 Ref Frames
Format settings, CABAC : Yes
Format settings, RefFrames : 8 frames
Codec ID : V_MPEG4/ISO/AVC
Duration : 1 h 44 min
Bit rate : 2 560 kb/s
Width : 1 280 pixels
Height : 720 pixels
Display aspect ratio : 16:9
Frame rate mode : Constant
Frame rate : 24.000 FPS
Color space : YUV
Chroma subsampling : 4:2:0
Bit depth : 8 bits
Scan type : Progressive
Bits/(Pixel*Frame) : 0.116
Stream size : 1.87 GiB (80%)
Writing library : x264 core 155 r2917 0a84d98
Encoding settings : cabac=1 / ref=8 / deblock=1:-2:-2 / analyse=0x3:0x133 / me=umh / subme=9 / psy=1 / psy_rd=1.00:0.25 / mixed_ref=1 / me_range=24 / chroma_me=1 / trellis=2 / 8x8dct=1 / cqm=0 / deadzone=21,11 / fast_pskip=1 / chroma_qp_offset=-4 / threads=22 / lookahead_threads=2 / sliced_threads=0 / nr=0 / decimate=1 / interlaced=0 / bluray_compat=0 / constrained_intra=0 / bframes=4 / b_pyramid=2 / b_adapt=2 / b_bias=0 / direct=3 / weightb=1 / open_gop=0 / weightp=2 / keyint=240 / keyint_min=24 / scenecut=40 / intra_refresh=0 / rc_lookahead=120 / rc=2pass / mbtree=1 / bitrate=2560 / ratetol=1.0 / qcomp=0.60 / qpmin=0 / qpmax=69 / qpstep=4 / cplxblur=20.0 / qblur=0.5 / vbv_maxrate=20000 / vbv_bufsize=25000 / nal_hrd=none / filler=0 / ip_ratio=1.40 / aq=1:1.00
Language : Finnish
Default : Yes
Forced : No
Color range : Limited
Color primaries : BT.709
Transfer characteristics : BT.709
Matrix coefficients : BT.709

Audio #1
ID : 2
Format : AC-3
Format/Info : Audio Coding 3
Format settings, Endianness : Big
Codec ID : A_AC3
Duration : 1 h 44 min
Bit rate mode : Constant
Bit rate : 448 kb/s
Channel(s) : 6 channels
Channel positions : Front: L C R, Side: L R, LFE
Sampling rate : 48.0 kHz
Frame rate : 31.250 FPS (1536 SPF)
Bit depth : 16 bits
Compression mode : Lossy
Delay relative to video : -5 ms
Stream size : 335 MiB (14%)
Title : Surround
Language : Finnish
Service kind : Complete Main
Default : Yes
Forced : No

Audio #2
ID : 3
Format : AC-3
Format/Info : Audio Coding 3
Format settings, Endianness : Big
Codec ID : A_AC3
Duration : 1 h 44 min
Bit rate mode : Constant
Bit rate : 192 kb/s
Channel(s) : 2 channels
Channel positions : Front: L R
Sampling rate : 48.0 kHz
Frame rate : 31.250 FPS (1536 SPF)
Bit depth : 16 bits
Compression mode : Lossy
Stream size : 144 MiB (6%)
Title : Commentary by writer-director J-P Valkeapa?a?
Language : English
Service kind : Complete Main
Default : No
Forced : No

Text
ID : 4
Format : UTF-8
Codec ID : S_TEXT/UTF8
Codec ID/Info : UTF-8 Plain Text
Duration : 1 h 40 min
Bit rate : 13 b/s
Count of elements : 424
Stream size : 9.64 KiB (0%)
Language : English
Default : Yes
Forced : No

Menu
00:00:00.000 : :Chapter 1
00:07:10.792 : :Chapter 2
00:18:02.542 : :Chapter 3
00:27:08.208 : :Chapter 4
00:34:21.417 : :Chapter 5
00:43:03.292 : :Chapter 6
00:50:24.375 : :Chapter 7
01:01:57.208 : :Chapter 8
01:07:29.042 : :Chapter 9
01:17:24.750 : :Chapter 10
01:30:59.417 : :Chapter 11
01:36:20.458 : :Chapter 12
01:41:15.208 : :Chapter 13





Dogs Don't Wear Pants (2019)


Dogs Don't Wear Pants (2019)


Dogs Don't Wear Pants (2019)


Dogs Don't Wear Pants (2019)


Dogs Don't Wear Pants (2019)