Tags
Language
Tags

Don Verdean (2015)

Posted By: Tavaz
1080p (FullHD) / WEB-DL IMDb
Don Verdean (2015)

Don Verdean (2015)
WEB-DL | MKV | 1908x1068 | English | H264 @ 5113 kbps | AC-3 @ 384 kbps | 1 h 36 min | 3.69 GiB
Subtitles: Dutch
Genre: Comedy

Biblical archaeologist Don Verdean is hired by a local church pastor to find faith-promoting relics in the Holy Land. But after a fruitless expedition he is forced to get creative in this comedy of faith and fraud.

Wat biedt Hitnews.docx (26.2 KB)
TGF-462H.1.5DD.LD-BEW.p0801.6102.naedreV.noD.mkv (3.7 GB)



General
Unique ID : 236487178109873627818941111881229557005 (0xB1E9C61659C6399640E395E17EFE5D0D)
Complete name : ./Don Verdean 1080p WEB-DL/TGF-462H.1.5DD.LD-BEW.p0801.6102.naedreV.noD.mkv
Format : Matroska
Format version : Version 4 / Version 2
File size : 3.69 GiB
Duration : 1 h 36 min
Overall bit rate : 5 496 kb/s
Encoded date : UTC 2019-01-01 05:44:39
Writing application : mkvmerge v29.0.0 ('Like It Or Not') 64-bit
Writing library : libebml v1.3.6 + libmatroska v1.4.9

Video
ID : 1
Format : AVC
Format/Info : Advanced Video Codec
Format profile : High@L4
Format settings : CABAC / 4 Ref Frames
Format settings, CABAC : Yes
Format settings, RefFrames : 4 frames
Codec ID : V_MPEG4/ISO/AVC
Duration : 1 h 36 min
Bit rate : 5 113 kb/s
Width : 1 908 pixels
Height : 1 068 pixels
Display aspect ratio : 16:9
Frame rate mode : Constant
Frame rate : 23.976 (24000/1001) FPS
Color space : YUV
Chroma subsampling : 4:2:0
Bit depth : 8 bits
Scan type : Progressive
Bits/(Pixel*Frame) : 0.105
Stream size : 3.43 GiB (93%)
Title : Don.Verdean.2015.1080p.WEB-DL.DD5.1.H264-FGT
Language : English
Default : Yes
Forced : No
Color range : Limited
Color primaries : BT.709
Transfer characteristics : BT.709
Matrix coefficients : BT.709

Audio
ID : 2
Format : AC-3
Format/Info : Audio Coding 3
Format settings, Endianness : Big
Codec ID : A_AC3
Duration : 1 h 36 min
Bit rate mode : Constant
Bit rate : 384 kb/s
Channel(s) : 6 channels
Channel positions : Front: L C R, Side: L R, LFE
Sampling rate : 48.0 kHz
Frame rate : 31.250 FPS (1536 SPF)
Bit depth : 16 bits
Compression mode : Lossy
Stream size : 264 MiB (7%)
Title : Don.Verdean.2015.1080p.WEB-DL.DD5.1.H264-FGT
Language : English
Service kind : Complete Main
Default : Yes
Forced : No

Text
ID : 3
Format : UTF-8
Codec ID : S_TEXT/UTF8
Codec ID/Info : UTF-8 Plain Text
Duration : 1 h 31 min
Bit rate : 62 b/s
Count of elements : 975
Stream size : 41.8 KiB (0%)
Language : Dutch
Default : Yes
Forced : No





Don Verdean (2015)


Don Verdean (2015)


Don Verdean (2015)


Don Verdean (2015)


Don Verdean (2015)