Tags
Language
Tags

Don't Be a Menace to South Central While Drinking Your Juice in the Hood (1996)

Posted By: Tavaz
1080p (FullHD) / BDRip IMDb
Don't Be a Menace to South Central While Drinking Your Juice in the Hood (1996)

Don't Be a Menace to South Central While Drinking Your Juice in the Hood (1996)
BDRip | MKV | 1920x1080 | English | H264 @ 9055 kbps | DTS @ 1509 kbps | 1 h 28 min | 6.56 GiB
Genre: Comedy

When Ashtray (Shawn Wayans) moves to South Central L.A. to live with his father (who appears to be the same age he is) and grandmother (who likes to talk tough and smoke reefer), he falls in with his gang-banging cousin Loc Dog (Marlon Wayans), who along with the requisite pistols and Uzi carries a thermo-nuclear warhead for self-defense. Will Ashtray be able to keep living the straight life?

a728880781404f12bfd009d97f8dfd73.mkv (6.6 GB)



General
Complete name : ./a728880781404f12bfd009d97f8dfd73.mkv
Format : Matroska
Format version : Version 2
File size : 6.56 GiB
Duration : 1 h 28 min
Overall bit rate : 10.6 Mb/s
Writing application : x264.exe
Writing library : mkv2rls v1.4 (date: 2011 mar 29)

Video
ID : 1
Format : AVC
Format/Info : Advanced Video Codec
Format profile : High@L4.1
Format settings : CABAC / 4 Ref Frames
Format settings, CABAC : Yes
Format settings, RefFrames : 4 frames
Codec ID : V_MPEG4/ISO/AVC
Duration : 1 h 28 min
Bit rate : 9 055 kb/s
Width : 1 920 pixels
Height : 1 080 pixels
Display aspect ratio : 16:9
Frame rate mode : Constant
Frame rate : 23.976 (24000/1001) FPS
Color space : YUV
Chroma subsampling : 4:2:0
Bit depth : 8 bits
Scan type : Progressive
Bits/(Pixel*Frame) : 0.182
Stream size : 5.49 GiB (84%)
Writing library : x264 core 115 r2008 4c552d8
Encoding settings : cabac=1 / ref=4 / deblock=1:0:0 / analyse=0x3:0x113 / me=umh / subme=8 / psy=1 / psy_rd=1.00:0.00 / mixed_ref=1 / me_range=16 / chroma_me=1 / trellis=1 / 8x8dct=1 / cqm=0 / deadzone=21,11 / fast_pskip=1 / chroma_qp_offset=-2 / threads=12 / sliced_threads=0 / nr=0 / decimate=1 / interlaced=0 / bluray_compat=0 / constrained_intra=0 / bframes=3 / b_pyramid=2 / b_adapt=2 / b_bias=0 / direct=3 / weightb=1 / open_gop=0 / weightp=2 / keyint=240 / keyint_min=24 / scenecut=40 / intra_refresh=0 / rc_lookahead=50 / rc=2pass / mbtree=1 / bitrate=9055 / ratetol=1.0 / qcomp=0.60 / qpmin=0 / qpmax=69 / qpstep=4 / cplxblur=20.0 / qblur=0.5 / ip_ratio=1.40 / aq=1:1.00
Language : English
Default : Yes
Forced : No

Audio
ID : 2
Format : DTS
Format/Info : Digital Theater Systems
Mode : 16
Format settings, Endianness : Big
Codec ID : A_DTS
Duration : 1 h 28 min
Bit rate mode : Constant
Bit rate : 1 509 kb/s
Channel(s) : 6 channels
Channel positions : Front: L C R, Side: L R, LFE
Sampling rate : 48.0 kHz
Frame rate : 93.750 FPS (512 SPF)
Bit depth : 24 bits
Compression mode : Lossy
Stream size : 959 MiB (14%)
Language : English
Default : Yes
Forced : No

Menu
00:00:00.000 : en:00:00:00.000
00:09:19.025 : en:00:09:19.025
00:12:44.998 : en:00:12:44.998
00:19:00.339 : en:00:19:00.339
00:26:09.735 : en:00:26:09.735
00:31:05.797 : en:00:31:05.797
00:36:35.460 : en:00:36:35.460
00:40:58.489 : en:00:40:58.489
00:48:38.415 : en:00:48:38.415
00:53:32.476 : en:00:53:32.476
00:56:08.465 : en:00:56:08.465
01:02:25.108 : en:01:02:25.108
01:09:05.341 : en:01:09:05.341
01:12:58.040 : en:01:12:58.040
01:17:27.142 : en:01:17:27.142





Don't Be a Menace to South Central While Drinking Your Juice in the Hood (1996)


Don't Be a Menace to South Central While Drinking Your Juice in the Hood (1996)


Don't Be a Menace to South Central While Drinking Your Juice in the Hood (1996)


Don't Be a Menace to South Central While Drinking Your Juice in the Hood (1996)


Don't Be a Menace to South Central While Drinking Your Juice in the Hood (1996)