Tags
Language
Tags

Doom: Annihilation (2019)

Posted By: JohnSmith
720p (HD) / BDRip IMDb
Doom: Annihilation (2019)

Doom: Annihilation (2019)
BDRip 720p | MKV / AVC@5700 kb/s | 1280x720 | 1h 36mn
Français: DTS, 768 kb/s (6 ch) | Subtitles: Français | 4.37 GB
Genre: Action | Adventure | Horror | Sci-Fi | Thriller

Adaptation de la fameuse licence vidéoludique créée par le studio ID Software, cette nouvelle version de Doom voit le sanglant périple d'un groupe de Marines de l'Espace répondre à un signal de détresse envoyé depuis une colonie martienne. Une fois sur place, ils découvrent alors que la colonie est en réalité envahie par des créatures démoniaques tout droit sorties de l'Enfer…


General
Unique ID : 249804341939383879378898137466495308825 (0xBBEE90F4F79189E4837BC4DB11F41419)
Complete name : C:\Doom.Annihilation.2019.FRENCH.720p.BluRay.mkv
Format : Matroska
Format version : Version 4
File size : 4.37 GiB
Duration : 1 h 36 min
Overall bit rate : 6 472 kb/s
Encoded date : UTC 2019-09-25 02:23:40
Writing application : mkvmerge v8.3.0 ('Over the Horizon') 64bit
Writing library : libebml v1.3.1 + libmatroska v1.4.2

Video
ID : 1
Format : AVC
Format/Info : Advanced Video Codec
Format profile : High@L4.1
Format settings : CABAC / 5 Ref Frames
Format settings, CABAC : Yes
Format settings, Reference : 5 frames
Codec ID : V_MPEG4/ISO/AVC
Duration : 1 h 36 min
Bit rate : 5 704 kb/s
Width : 1 280 pixels
Height : 720 pixels
Display aspect ratio : 16:9
Frame rate mode : Constant
Frame rate : 23.976 FPS
Color space : YUV
Chroma subsampling : 4:2:0
Bit depth : 8 bits
Scan type : Progressive
Bits/(Pixel*Frame) : 0.258
Stream size : 3.85 GiB (88%)
Writing library : x264 core 157 r2969 d4099dd
Encoding settings : cabac=1 / ref=5 / deblock=1:0:0 / analyse=0x3:0x133 / me=umh / subme=7 / psy=1 / psy_rd=1.00:0.00 / mixed_ref=1 / me_range=16 / chroma_me=1 / trellis=1 / 8x8dct=1 / cqm=0 / deadzone=21,11 / fast_pskip=0 / chroma_qp_offset=-2 / threads=22 / lookahead_threads=3 / sliced_threads=0 / nr=0 / decimate=1 / interlaced=0 / bluray_compat=0 / constrained_intra=0 / bframes=3 / b_pyramid=2 / b_adapt=1 / b_bias=0 / direct=1 / weightb=1 / open_gop=0 / weightp=2 / keyint=250 / keyint_min=23 / scenecut=40 / intra_refresh=0 / rc_lookahead=40 / rc=2pass / mbtree=1 / bitrate=5704 / ratetol=1.0 / qcomp=0.60 / qpmin=0 / qpmax=69 / qpstep=4 / cplxblur=20.0 / qblur=0.5 / ip_ratio=1.40 / aq=1:1.00
Language : English
Default : Yes
Forced : No

Audio
ID : 2
Format : DTS
Format/Info : Digital Theater Systems
Codec ID : A_DTS
Duration : 1 h 36 min
Bit rate mode : Constant
Bit rate : 768 kb/s
Channel(s) : 6 channels
Channel layout : C L R Ls Rs LFE
Sampling rate : 48.0 kHz
Frame rate : 93.750 FPS (512 SPF)
Bit depth : 24 bits
Compression mode : Lossy
Stream size : 531 MiB (12%)
Language : French
Default : Yes
Forced : No

Text #1
ID : 3
Format : UTF-8
Codec ID : S_TEXT/UTF8
Codec ID/Info : UTF-8 Plain Text
Duration : 1 h 35 min
Bit rate : 50 b/s
Count of elements : 1089
Stream size : 35.5 KiB (0%)
Language : French
Default : No
Forced : No

Text #2
ID : 4
Format : UTF-8
Codec ID : S_TEXT/UTF8
Codec ID/Info : UTF-8 Plain Text
Duration : 1 h 35 min
Bit rate : 2 b/s
Count of elements : 48
Stream size : 1.52 KiB (0%)
Title : Forced
Language : French
Default : Yes
Forced : Yes

Menu
00:00:00.000 : en:00:00:00.000
00:04:47.037 : en:00:04:47.037
00:11:39.073 : en:00:11:39.073
00:17:51.195 : en:00:17:51.195
00:21:43.594 : en:00:21:43.594
00:25:43.792 : en:00:25:43.792
00:29:18.674 : en:00:29:18.674
00:34:06.836 : en:00:34:06.836
00:39:14.018 : en:00:39:14.018
00:45:43.908 : en:00:45:43.908
00:49:57.661 : en:00:49:57.661
00:54:35.230 : en:00:54:35.230
01:00:09.981 : en:01:00:09.981
01:04:59.562 : en:01:04:59.562
01:11:41.631 : en:01:11:41.631
01:16:43.140 : en:01:16:43.140
01:21:27.216 : en:01:21:27.216
01:25:45.640 : en:01:25:45.640
01:31:38.618 : en:01:31:38.618
01:33:37.695 : en:01:33:37.695




Screenshots

Doom: Annihilation (2019)

Doom: Annihilation (2019)

Doom: Annihilation (2019)