Doomed: The Untold Story of Roger Corman's the Fantastic Four (2015)

Posted By: Without
Doomed: The Untold Story of Roger Corman's the Fantastic Four (2015)

Doomed: The Untold Story of Roger Corman's the Fantastic Four (2015)
BDRip | MKV | 720x404 | AVC@759 kb/s | English AAC@109 kb/s | 2 channels | 1 h 24 min | 525 MB
BRRip | MKV | 720x400 | AVC@1623 kb/s | English AC3@448 kb/s | 2 channels | 1 h 24 min | 1.22 GB
BDRip 720p | MKV | 1280x720 | AVC@4278 kb/s | English AC3@192 kb/s | 2 channels | 1 h 24 min | 2.63 GB
BDRip 1080p | MKV | 1920x1080 | AVC@9057 kb/s | English AC3@192 kb/s | 2 channels | 1 h 24 min | 5.45 GB
Genre: Documentary

A documentary that tells the history of the ill-fated movie version of the Fantastic Four that was executive produced by Roger Corman.



General
Complete name : Doomed.The.Untold.Story.of.Roger.Cormans.the.Fantastic.Four.2015.BDRip.x264-VoMiT\Doomed.The.Untold.Story.of.Roger.Cormans.the.Fantastic.Four.2015.BDRip.x264-VoMiT.mkv
Format : Matroska
Format version : Version 4 / Version 2
File size : 525 MiB
Duration : 1 h 24 min
Overall bit rate : 869 kb/s
Encoded date : UTC 2017-04-29 22:39:37
Writing application : mkvmerge v11.0.0 ('Alive') 64bit
Writing library : libebml v1.3.4 + libmatroska v1.4.5

Video
ID : 1
Format : AVC
Format/Info : Advanced Video Codec
Format profile : High@L3.1
Format settings, CABAC : Yes
Format settings, ReFrames : 5 frames
Codec ID : V_MPEG4/ISO/AVC
Duration : 1 h 24 min
Bit rate : 759 kb/s
Width : 720 pixels
Height : 404 pixels
Display aspect ratio : 16:9
Frame rate mode : Constant
Frame rate : 23.976 (24000/1001) FPS
Color space : YUV
Chroma subsampling : 4:2:0
Bit depth : 8 bits
Scan type : Progressive
Bits/(Pixel*Frame) : 0.109
Stream size : 458 MiB (87%)
Writing library : x264 core 148 r2744 b97ae06
Encoding settings : cabac=1 / ref=5 / deblock=1:-3:-3 / analyse=0x3:0x113 / me=umh / subme=8 / psy=1 / psy_rd=1.00:0.25 / mixed_ref=1 / me_range=24 / chroma_me=1 / trellis=2 / 8x8dct=1 / cqm=0 / deadzone=21,11 / fast_pskip=1 / chroma_qp_offset=-4 / threads=13 / lookahead_threads=2 / sliced_threads=0 / nr=0 / decimate=1 / interlaced=0 / bluray_compat=0 / constrained_intra=0 / bframes=3 / b_pyramid=2 / b_adapt=1 / b_bias=0 / direct=3 / weightb=1 / open_gop=0 / weightp=2 / keyint=240 / keyint_min=24 / scenecut=40 / intra_refresh=0 / rc_lookahead=50 / rc=crf / mbtree=1 / crf=19.0 / qcomp=0.60 / qpmin=0 / qpmax=69 / qpstep=4 / ip_ratio=1.40 / aq=1:0.75
Default : Yes
Forced : No
Color range : Limited
Matrix coefficients : BT.709

Audio
ID : 2
Format : AAC
Format/Info : Advanced Audio Codec
Format profile : LC
Codec ID : A_AAC
Duration : 1 h 24 min
Bit rate : 109 kb/s
Channel(s) : 2 channels
Channel positions : Front: L R
Sampling rate : 48.0 kHz
Frame rate : 46.875 FPS (1024 spf)
Compression mode : Lossy
Delay relative to video : 9 ms
Stream size : 65.6 MiB (12%)
Language : English
Default : Yes
Forced : No

Menu
00:00:00.000 : en:00:00:00.000
00:03:19.950 : en:00:03:19.950
00:09:36.493 : en:00:09:36.493
00:23:30.743 : en:00:23:30.743
00:46:40.965 : en:00:46:40.965
00:55:15.521 : en:00:55:15.521
01:09:53.898 : en:01:09:53.898
01:22:07.423 : en:01:22:07.423

General
Complete name : Doomed.The.Untold.Story.of.Roger.Cormans.the.Fantastic.Four.2015.BRRip.mkv
Format : Matroska
Format version : Version 4 / Version 2
File size : 1.22 GiB
Duration : 1 h 24 min
Overall bit rate : 2 074 kb/s
Encoded date : UTC 2017-04-30T00:30:00Z
Writing application : HandBrake 1.0.3 2017022500
Writing library : Lavf57.7.2 / Lavf57.7.2

Video
ID : 1
Format : AVC
Format/Info : Advanced Video Codec
Format profile : Baseline@L3.1
Format settings, CABAC : No
Format settings, ReFrames : 1 frame
Codec ID : V_MPEG4/ISO/AVC
Duration : 1 h 24 min
Bit rate : 1 623 kb/s
Width : 720 pixels
Height : 400 pixels
Display aspect ratio : 16:9
Frame rate mode : Constant
Frame rate : 23.976 (24000/1001) FPS
Color space : YUV
Chroma subsampling : 4:2:0
Bit depth : 8 bits
Scan type : Progressive
Bits/(Pixel*Frame) : 0.235
Stream size : 958 MiB (76%)
Writing library : x264 core 148 r2708 86b7198
Encoding settings : cabac=0 / ref=1 / deblock=1:0:0 / analyse=0x1:0x1 / me=dia / subme=1 / psy=1 / psy_rd=1.00:0.00 / mixed_ref=0 / me_range=16 / chroma_me=1 / trellis=0 / 8x8dct=0 / cqm=0 / deadzone=21,11 / fast_pskip=1 / chroma_qp_offset=0 / threads=12 / lookahead_threads=2 / sliced_threads=0 / nr=0 / decimate=1 / interlaced=0 / bluray_compat=0 / constrained_intra=0 / bframes=0 / weightp=0 / keyint=240 / keyint_min=24 / scenecut=40 / intra_refresh=0 / rc_lookahead=0 / rc=2pass / mbtree=0 / bitrate=1623 / ratetol=1.0 / qcomp=0.60 / qpmin=0 / qpmax=69 / qpstep=4 / cplxblur=20.0 / qblur=0.5 / vbv_maxrate=14000 / vbv_bufsize=14000 / nal_hrd=none / filler=0 / ip_ratio=1.40 / aq=1:1.00
Default : Yes
Forced : No
Color range : Limited
Color primaries : BT.709
Transfer characteristics : BT.709
Matrix coefficients : BT.709

Audio
ID : 2
Format : AC-3
Format/Info : Audio Coding 3
Mode extension : CM (complete main)
Format settings, Endianness : Big
Codec ID : A_AC3
Duration : 1 h 24 min
Bit rate mode : Constant
Bit rate : 448 kb/s
Channel(s) : 2 channels
Channel positions : Front: L R
Sampling rate : 48.0 kHz
Frame rate : 31.250 FPS (1536 spf)
Bit depth : 16 bits
Compression mode : Lossy
Delay relative to video : -5 ms
Stream size : 271 MiB (22%)
Title : Stereo
Language : English
Default : Yes
Forced : No

Menu
00:00:00.000 : :00:00:00.000
00:03:19.991 : :00:03:19.950
00:09:36.534 : :00:09:36.493
00:23:30.784 : :00:23:30.743
00:46:40.965 : :00:46:40.965
00:55:15.521 : :00:55:15.521
01:09:54.023 : :01:09:53.898
01:22:07.423 : :01:22:07.423

General
Complete name : Doomed.The.Untold.Story.of.Roger.Cormans.the.Fantastic.Four.2015.720p.BluRay.x264-SADPANDA\Doomed.The.Untold.Story.of.Roger.Cormans.the.Fantastic.Four.2015.720p.BluRay.x264-SADPANDA.mkv
Format : Matroska
Format version : Version 4 / Version 2
File size : 2.64 GiB
Duration : 1 h 24 min
Overall bit rate : 4 468 kb/s
Encoded date : UTC 2017-04-29 22:38:34
Writing application : mkvmerge v11.0.0 ('Alive') 64bit
Writing library : libebml v1.3.4 + libmatroska v1.4.5

Video
ID : 1
Format : AVC
Format/Info : Advanced Video Codec
Format profile : High@L4.1
Format settings, CABAC : Yes
Format settings, ReFrames : 5 frames
Codec ID : V_MPEG4/ISO/AVC
Duration : 1 h 24 min
Bit rate : 4 278 kb/s
Width : 1 280 pixels
Height : 720 pixels
Display aspect ratio : 16:9
Frame rate mode : Constant
Frame rate : 23.976 (24000/1001) FPS
Color space : YUV
Chroma subsampling : 4:2:0
Bit depth : 8 bits
Scan type : Progressive
Bits/(Pixel*Frame) : 0.194
Stream size : 2.52 GiB (96%)
Writing library : x264 core 148 r2744 b97ae06
Encoding settings : cabac=1 / ref=5 / deblock=1:-3:-3 / analyse=0x3:0x113 / me=umh / subme=8 / psy=1 / psy_rd=1.00:0.25 / mixed_ref=1 / me_range=24 / chroma_me=1 / trellis=1 / 8x8dct=1 / cqm=0 / deadzone=21,11 / fast_pskip=1 / chroma_qp_offset=-4 / threads=22 / lookahead_threads=3 / sliced_threads=0 / nr=0 / decimate=1 / interlaced=0 / bluray_compat=0 / constrained_intra=0 / bframes=3 / b_pyramid=2 / b_adapt=1 / b_bias=0 / direct=3 / weightb=1 / open_gop=0 / weightp=2 / keyint=240 / keyint_min=24 / scenecut=40 / intra_refresh=0 / rc_lookahead=50 / rc=2pass / mbtree=1 / bitrate=4278 / ratetol=1.0 / qcomp=0.60 / qpmin=0 / qpmax=69 / qpstep=4 / cplxblur=20.0 / qblur=0.5 / ip_ratio=1.40 / aq=1:0.75
Default : Yes
Forced : No

Audio
ID : 2
Format : AC-3
Format/Info : Audio Coding 3
Mode extension : CM (complete main)
Format settings, Endianness : Big
Codec ID : A_AC3
Duration : 1 h 24 min
Bit rate mode : Constant
Bit rate : 192 kb/s
Channel(s) : 2 channels
Channel positions : Front: L R
Sampling rate : 48.0 kHz
Frame rate : 31.250 FPS (1536 spf)
Bit depth : 16 bits
Compression mode : Lossy
Stream size : 116 MiB (4%)
Language : English
Default : Yes
Forced : No

Menu
00:00:00.000 : en:00:00:00.000
00:03:19.950 : en:00:03:19.950
00:09:36.493 : en:00:09:36.493
00:23:30.743 : en:00:23:30.743
00:46:40.965 : en:00:46:40.965
00:55:15.521 : en:00:55:15.521
01:09:53.898 : en:01:09:53.898
01:22:07.423 : en:01:22:07.423

General
Complete name : Doomed.The.Untold.Story.of.Roger.Cormans.the.Fantastic.Four.2015.1080p.BluRay.x264-SADPANDA\Doomed.The.Untold.Story.of.Roger.Cormans.the.Fantastic.Four.2015.1080p.BluRay.x264-SADPANDA.mkv
Format : Matroska
Format version : Version 4 / Version 2
File size : 5.46 GiB
Duration : 1 h 24 min
Overall bit rate : 9 248 kb/s
Encoded date : UTC 2017-04-29 22:38:52
Writing application : mkvmerge v11.0.0 ('Alive') 64bit
Writing library : libebml v1.3.4 + libmatroska v1.4.5

Video
ID : 1
Format : AVC
Format/Info : Advanced Video Codec
Format profile : High@L4.1
Format settings, CABAC : Yes
Format settings, ReFrames : 4 frames
Codec ID : V_MPEG4/ISO/AVC
Duration : 1 h 24 min
Bit rate : 9 057 kb/s
Width : 1 920 pixels
Height : 1 080 pixels
Display aspect ratio : 16:9
Frame rate mode : Constant
Frame rate : 23.976 (24000/1001) FPS
Color space : YUV
Chroma subsampling : 4:2:0
Bit depth : 8 bits
Scan type : Progressive
Bits/(Pixel*Frame) : 0.182
Stream size : 5.34 GiB (98%)
Writing library : x264 core 148 r2744 b97ae06
Encoding settings : cabac=1 / ref=4 / deblock=1:-3:-3 / analyse=0x3:0x113 / me=umh / subme=8 / psy=1 / psy_rd=1.00:0.25 / mixed_ref=1 / me_range=24 / chroma_me=1 / trellis=1 / 8x8dct=1 / cqm=0 / deadzone=21,11 / fast_pskip=1 / chroma_qp_offset=-4 / threads=30 / lookahead_threads=5 / sliced_threads=0 / nr=0 / decimate=1 / interlaced=0 / bluray_compat=0 / constrained_intra=0 / bframes=3 / b_pyramid=2 / b_adapt=1 / b_bias=0 / direct=3 / weightb=1 / open_gop=0 / weightp=2 / keyint=240 / keyint_min=24 / scenecut=40 / intra_refresh=0 / rc_lookahead=50 / rc=2pass / mbtree=1 / bitrate=9057 / ratetol=1.0 / qcomp=0.60 / qpmin=0 / qpmax=69 / qpstep=4 / cplxblur=20.0 / qblur=0.5 / ip_ratio=1.40 / aq=1:0.75
Default : Yes
Forced : No

Audio
ID : 2
Format : AC-3
Format/Info : Audio Coding 3
Mode extension : CM (complete main)
Format settings, Endianness : Big
Codec ID : A_AC3
Duration : 1 h 24 min
Bit rate mode : Constant
Bit rate : 192 kb/s
Channel(s) : 2 channels
Channel positions : Front: L R
Sampling rate : 48.0 kHz
Frame rate : 31.250 FPS (1536 spf)
Bit depth : 16 bits
Compression mode : Lossy
Stream size : 116 MiB (2%)
Language : English
Default : Yes
Forced : No

Menu
00:00:00.000 : en:00:00:00.000
00:03:19.950 : en:00:03:19.950
00:09:36.493 : en:00:09:36.493
00:23:30.743 : en:00:23:30.743
00:46:40.965 : en:00:46:40.965
00:55:15.521 : en:00:55:15.521
01:09:53.898 : en:01:09:53.898
01:22:07.423 : en:01:22:07.423


BDRip Screenshots

Doomed: The Untold Story of Roger Corman's the Fantastic Four (2015)

Doomed: The Untold Story of Roger Corman's the Fantastic Four (2015)

Doomed: The Untold Story of Roger Corman's the Fantastic Four (2015)


BRRip Screenshots

Doomed: The Untold Story of Roger Corman's the Fantastic Four (2015)

Doomed: The Untold Story of Roger Corman's the Fantastic Four (2015)

Doomed: The Untold Story of Roger Corman's the Fantastic Four (2015)


BDRip 720p Screenshots

Doomed: The Untold Story of Roger Corman's the Fantastic Four (2015)

Doomed: The Untold Story of Roger Corman's the Fantastic Four (2015)

Doomed: The Untold Story of Roger Corman's the Fantastic Four (2015)


BDRip 1080p Screenshots

Doomed: The Untold Story of Roger Corman's the Fantastic Four (2015)

Doomed: The Untold Story of Roger Corman's the Fantastic Four (2015)

Doomed: The Untold Story of Roger Corman's the Fantastic Four (2015)


Come Visit My Blog (•‿•)