Tags
Language
Tags

Dr. Strangelove or: How I Learned to Stop Worrying and Love the Bomb (1964)

Posted By: Tavaz
1080p (FullHD) / BluRay Remux IMDb
Dr. Strangelove or: How I Learned to Stop Worrying and Love the Bomb (1964)

Dr. Strangelove or: How I Learned to Stop Worrying and Love the Bomb (1964)
BluRay Remux | MKV | 1920x1080 | English | H264 @ 28498 kbps | DTS-HD Master Audio 5.1 | 1 h 34 min | 21.4 GiB
Subtitles: English
Genre: Fantasy/Comedy

After the insane General Jack D. Ripper initiates a nuclear strike on the Soviet Union, a war room full of politicians, generals and a Russian diplomat all frantically try to stop the nuclear strike…

97c4c5f2b2354acb90da900eb6535ed2.mkv (21.4 GB)



General
Complete name : ./97c4c5f2b2354acb90da900eb6535ed2.mkv
Format : Matroska
Format version : Version 4 / Version 2
File size : 21.4 GiB
Duration : 1 h 34 min
Overall bit rate mode : Variable
Overall bit rate : 32.3 Mb/s
Encoded date : UTC 2018-01-17 01:54:03
Writing application : mkvmerge v20.0.0 ('I Am The Sun') 64-bit
Writing library : libebml v1.3.5 + libmatroska v1.4.8

Video
ID : 1
Format : AVC
Format/Info : Advanced Video Codec
Format profile : High@L4.1
Format settings : CABAC / 4 Ref Frames
Format settings, CABAC : Yes
Format settings, RefFrames : 4 frames
Codec ID : V_MPEG4/ISO/AVC
Duration : 1 h 34 min
Bit rate mode : Variable
Bit rate : 28.5 Mb/s
Maximum bit rate : 37.0 Mb/s
Width : 1 920 pixels
Height : 1 080 pixels
Display aspect ratio : 16:9
Frame rate mode : Constant
Frame rate : 23.976 (24000/1001) FPS
Color space : YUV
Chroma subsampling : 4:2:0
Bit depth : 8 bits
Scan type : Progressive
Bits/(Pixel*Frame) : 0.573
Stream size : 18.9 GiB (88%)
Title : MPEG-4 AVC Video / 28500 kbps / 1080p / 23.976 fps / 16:9 / High Profile 4.1
Language : English
Default : Yes
Forced : No

Audio
ID : 2
Format : DTS
Format/Info : Digital Theater Systems
Format profile : MA / Core
Mode : 16
Format settings, Endianness : Big
Codec ID : A_DTS
Duration : 1 h 34 min
Bit rate mode : Variable / Constant
Bit rate : 3 680 kb/s / 1 509 kb/s
Channel(s) : 6 channels
Channel positions : Front: L C R, Side: L R, LFE
Sampling rate : 48.0 kHz
Frame rate : 93.750 FPS (512 SPF)
Bit depth : 24 bits
Compression mode : Lossless / Lossy
Stream size : 2.44 GiB (11%)
Title : DTS-HD Master Audio / 5.1 / 48 kHz / 3680 kbps / 24-bit
Language : English
Default : Yes
Forced : No

Text
ID : 3
Format : PGS
Codec ID : S_HDMV/PGS
Codec ID/Info : Picture based subtitle format used on BDs/HD-DVDs
Duration : 1 h 33 min
Bit rate : 71.4 kb/s
Count of elements : 2848
Stream size : 48.0 MiB (0%)
Title : SDH
Language : English
Default : No
Forced : No

Menu
00:00:00.000 : en:Ominous Rumors
00:03:22.452 : en:Condition Red
00:06:03.738 : en:Plan R
00:11:53.713 : en:Miss Foreign Affairs
00:15:08.324 : en:Three Rules
00:16:40.332 : en:Attack Profile
00:19:30.794 : en:Precious Bodily Fluids
00:24:26.548 : en:Moment of Truth
00:35:43.641 : en:Survival Kit
00:36:41.282 : en:"You Can't Fight in Here"
00:38:34.395 : en:Bullets at Burpelson
00:40:13.411 : en:Calling Dimitri
00:45:47.202 : en:Water
00:49:24.044 : en:Doomsday
00:54:12.207 : en:Loss of Essence
01:01:35.650 : en:Radar Blip
01:05:41.020 : en:Peace on Earth
01:08:00.826 : en:Fuel Loss
01:09:45.055 : en:"Mutiny of Perverts"
01:13:30.364 : en:Hopping Mad
01:18:01.885 : en:New Target
01:20:50.804 : en:Ride 'Em, Cowboy
01:27:51.349 : en:"I Can't Walk"
01:34:40.100 : en:Credits





Dr. Strangelove or: How I Learned to Stop Worrying and Love the Bomb (1964)


Dr. Strangelove or: How I Learned to Stop Worrying and Love the Bomb (1964)


Dr. Strangelove or: How I Learned to Stop Worrying and Love the Bomb (1964)


Dr. Strangelove or: How I Learned to Stop Worrying and Love the Bomb (1964)


Dr. Strangelove or: How I Learned to Stop Worrying and Love the Bomb (1964)