Tags
Language
Tags

Dragonheart: Vengeance (2020)

Posted By: Tavaz
1080p (FullHD) / BDRip IMDb
Dragonheart: Vengeance (2020)

Dragonheart: Vengeance (2020)
BDRip | MKV | 1920x1080 | English | H264 @ 5760 kbps | AC-3 @ 448 kbps | 1 h 36 min | 4.20 GiB
Subtitles: English
Genre: Fantasy

Lukas, a young farmer whose family is killed by savage raiders in the countryside, sets out on an epic quest for revenge, forming an unlikely trio with a majestic dragon and a swashbuckling, sword-fighting mercenary, Darius.

69b11eb521bd464691f9c2cdff17ce47.mkv (4.2 GB)



General
Unique ID : 210477632483153572607303750784851904261 (0x9E58847B07EE01F1049D81D103F40705)
Complete name : ./69b11eb521bd464691f9c2cdff17ce47.mkv
Format : Matroska
Format version : Version 4 / Version 2
File size : 4.20 GiB
Duration : 1 h 36 min
Overall bit rate : 6 209 kb/s
Movie name : Dragonheart.Vengeance.2020.1080p.BluRay.x264-nikt0
Encoded date : UTC 2020-02-13 21:09:53 / UTC 2020-02-13T00:51:02Z
Writing application : mkvmerge v38.0.0 ('The Silent Type') 64-bit
Writing library : libebml v1.3.9 + libmatroska v1.5.2 / Lavf57.7.2

Video
ID : 1
Format : AVC
Format/Info : Advanced Video Codec
Format profile : High@L4
Format settings : CABAC / 4 Ref Frames
Format settings, CABAC : Yes
Format settings, RefFrames : 4 frames
Codec ID : V_MPEG4/ISO/AVC
Duration : 1 h 36 min
Bit rate : 5 760 kb/s
Width : 1 920 pixels
Height : 1 080 pixels
Display aspect ratio : 16:9
Frame rate mode : Constant
Frame rate : 23.976 (24000/1001) FPS
Color space : YUV
Chroma subsampling : 4:2:0
Bit depth : 8 bits
Scan type : Progressive
Bits/(Pixel*Frame) : 0.116
Stream size : 3.82 GiB (91%)
Writing library : x264 core 155 r2901 7d0ff22
Encoding settings : cabac=1 / ref=4 / deblock=1:-3:-3 / analyse=0x3:0x133 / me=umh / subme=9 / psy=1 / psy_rd=1.10:0.25 / mixed_ref=1 / me_range=32 / chroma_me=1 / trellis=2 / 8x8dct=1 / cqm=0 / deadzone=6,6 / fast_pskip=1 / chroma_qp_offset=-4 / threads=34 / lookahead_threads=3 / sliced_threads=0 / nr=0 / decimate=1 / interlaced=0 / bluray_compat=0 / constrained_intra=0 / bframes=6 / b_pyramid=2 / b_adapt=2 / b_bias=0 / direct=3 / weightb=1 / open_gop=0 / weightp=2 / keyint=240 / keyint_min=24 / scenecut=40 / intra_refresh=0 / rc_lookahead=40 / rc=2pass / mbtree=1 / bitrate=5760 / ratetol=1.0 / qcomp=0.60 / qpmin=0 / qpmax=69 / qpstep=4 / cplxblur=20.0 / qblur=0.5 / vbv_maxrate=20000 / vbv_bufsize=25000 / nal_hrd=none / filler=0 / ip_ratio=1.40 / aq=1:1.00
Default : Yes
Forced : No
Color range : Limited
Color primaries : BT.709
Transfer characteristics : BT.709
Matrix coefficients : BT.709
Statistics Tags Issue : mkvmerge v38.0.0 ('The Silent Type') 64-bit 2020-02-13 21:09:53 / mkvmerge v38.0.0 ('The Silent Type') 64-bit 2020-02-13 21:09:53 / UTC 2020-02-13T00:51:02Z
FromStats_BitRate : 5759212
FromStats_Duration : 01:36:53.183000000
FromStats_FrameCount : 139377
FromStats_StreamSize : 4184919612

Audio
ID : 2
Format : AC-3
Format/Info : Audio Coding 3
Format settings, Endianness : Big
Codec ID : A_AC3
Duration : 1 h 36 min
Bit rate mode : Constant
Bit rate : 448 kb/s
Channel(s) : 6 channels
Channel positions : Front: L C R, Side: L R, LFE
Sampling rate : 48.0 kHz
Frame rate : 31.250 FPS (1536 SPF)
Bit depth : 16 bits
Compression mode : Lossy
Stream size : 310 MiB (7%)
Title : Surround
Language : English
Service kind : Complete Main
Default : Yes
Forced : No
Statistics Tags Issue : mkvmerge v38.0.0 ('The Silent Type') 64-bit 2020-02-13 21:09:53 / mkvmerge v38.0.0 ('The Silent Type') 64-bit 2020-02-13 21:09:53 / UTC 2020-02-13T00:51:02Z
FromStats_BitRate : 448000
FromStats_Duration : 01:36:53.184000000
FromStats_FrameCount : 181662
FromStats_StreamSize : 325538304

Text
ID : 3
Format : UTF-8
Codec ID : S_TEXT/UTF8
Codec ID/Info : UTF-8 Plain Text
Language : English
Default : Yes
Forced : No
Statistics Tags Issue : mkvmerge v38.0.0 ('The Silent Type') 64-bit 2020-02-13 21:09:53 / mkvmerge v38.0.0 ('The Silent Type') 64-bit 2020-02-13 21:09:53 / UTC 2020-02-13T00:51:02Z
FromStats_BitRate : 56
FromStats_Duration : 01:31:43.707000000
FromStats_FrameCount : 1306
FromStats_StreamSize : 38563

Menu
00:00:00.000 : :Chapter 1
00:05:33.416 : :Chapter 2
00:09:01.458 : :Chapter 3
00:13:01.656 : :Chapter 4
00:17:46.107 : :Chapter 5
00:21:59.443 : :Chapter 6
00:27:17.386 : :Chapter 7
00:34:52.424 : :Chapter 8
00:38:06.618 : :Chapter 9
00:42:08.943 : :Chapter 10
00:45:11.667 : :Chapter 11
00:51:19.702 : :Chapter 12
00:58:41.476 : :Chapter 13
01:03:53.163 : :Chapter 14
01:07:56.114 : :Chapter 15
01:12:40.189 : :Chapter 16
01:18:11.478 : :Chapter 17
01:24:32.734 : :Chapter 18
01:29:24.651 : :Chapter 19
01:32:25.915 : :Chapter 20





Dragonheart: Vengeance (2020)


Dragonheart: Vengeance (2020)


Dragonheart: Vengeance (2020)


Dragonheart: Vengeance (2020)


Dragonheart: Vengeance (2020)